Information of news
 (Votes #: 0)

ADSR Sounds - Power Mixing in Logic Pro X (2016)

Category: Tutorial

Download Now

http://s2.1pic.org/files/2016/07/28/74980af33342dbb87ba1.jpg
ADSR Sounds - Power Mixing in Logic Pro X
WEBRip | English | MP4 | 1920 x 1080 | AVC ~4973 kbps | 29.970 fps
AAC | 46.0 Kbps | 44.1 KHz | 1 channel | 01:20:30 | 2.72 GB
Genre: Video Tutorial / Sound Processing

Mixing is a fundamental production skill, but it can be daunting to new engineers. In this ADSR Production Concepts course, Instructor Stephen Ellestad walks you through a basic static mix workflow, discussing the process and choices he makes along the way. This workflow was developed over several years of teaching audio mix concepts at the college level, and provides a clear, repeatable process for engineers of all levels and genres.
Course Overview
Power Mixing is a basic concept that allows mix engineers to create a balanced, three dimensional static mix. In this course you'll step through the process starting with logical grouping of mix elements and working through basic balancing, dynamics, equalization, stereo width and depth before moving onto more specific individual group elements.
If you're looking to get started with pro level mixing, or simply want to add new techniques and methods to your arsenal, then this course is a great place to start!
Content:
01 Intro - Power mix overview
02 Starting with mix groups
03 Group dynamics and EQ
04 Panning, ambience & basic part treatment
05 Adjusting reverb & fine tuning
06 Master bus processing & bouncing your proof mix
also You can look my other last:
MediaInfo:

General
Complete name : 03 Group dynamics and EQ.mp4
Format : MPEG-4
Format profile : Base Media
Codec ID : isom
File size : 370 MiB
Duration : 10mn 17s
Overall bit rate mode : Variable
Overall bit rate : 5 028 Kbps
Writing application : Lavf56.25.101
Video
ID : 1
Format : AVC
Format/Info : Advanced Video Codec
Format profile : BaselineL3.0
Format settings, CABAC : No
Format settings, ReFrames : 3 frames
Codec ID : avc1
Codec ID/Info : Advanced Video Coding
Duration : 10mn 17s
Bit rate : 4 973 Kbps
Width : 1 920 pixels
Height : 1 080 pixels
Display aspect ratio : 16:9
Frame rate mode : Variable
Frame rate : 29.970 fps
Minimum frame rate : 29.412 fps
Maximum frame rate : 30.303 fps
Color space : YUV
Chroma subsampling : 4:2:0
Bit depth : 8 bits
Scan type : Progressive
Bits/(Pixel*Frame) : 0.080
Stream size : 366 MiB (99%)
Writing library : Zencoder Video Encoding System
Audio
ID : 2
Format : AAC
Format/Info : Advanced Audio Codec
Format profile : LC
Codec ID : 40
Duration : 10mn 17s
Bit rate mode : Variable
Bit rate : 46.0 Kbps
Maximum bit rate : 50.3 Kbps
Channel(s) : 1 channel
Channel positions : Front: C
Sampling rate : 44.1 KHz
Compression mode : Lossy
Stream size : 3.38 MiB (1%)
Screenshots

http://s2.1pic.org/files/2016/07/28/ee3da757a9df711de106.jpg

http://s2.1pic.org/files/2016/07/28/466ce6644c1b594c4951.jpg

http://s2.1pic.org/files/2016/07/28/033d0a7e87ad2c1d0c02.jpg

http://s2.1pic.org/files/2016/07/28/045928322a0feb790b18.jpg





Download link:
filejoker_net:
https://filejoker.net/0dirzvji2czd/peid3.ADSR.Sounds..Power.Mixing.in.Logic.Pro.X.2016.part1.rar
https://filejoker.net/3gvq15ekmkni/peid3.ADSR.Sounds..Power.Mixing.in.Logic.Pro.X.2016.part2.rar
https://filejoker.net/etnzca0pw9a0/peid3.ADSR.Sounds..Power.Mixing.in.Logic.Pro.X.2016.part3.rar
https://filejoker.net/9og1li4ym82y/peid3.ADSR.Sounds..Power.Mixing.in.Logic.Pro.X.2016.part4.rar
https://filejoker.net/q9l6woy803vi/peid3.ADSR.Sounds..Power.Mixing.in.Logic.Pro.X.2016.part5.rar

ausfile_com:
https://ausfile.com/43kjucb7yyck/peid3.ADSR.Sounds..Power.Mixing.in.Logic.Pro.X.2016.part1.rar.html
https://ausfile.com/tk8gulyurfwy/peid3.ADSR.Sounds..Power.Mixing.in.Logic.Pro.X.2016.part2.rar.html
https://ausfile.com/klgq3t697vm0/peid3.ADSR.Sounds..Power.Mixing.in.Logic.Pro.X.2016.part3.rar.html
https://ausfile.com/4x2ivlg4qeeh/peid3.ADSR.Sounds..Power.Mixing.in.Logic.Pro.X.2016.part4.rar.html
https://ausfile.com/llu7iwi8ofv3/peid3.ADSR.Sounds..Power.Mixing.in.Logic.Pro.X.2016.part5.rar.html

Rapidgator:
http://rapidgator.net/file/c680977358c31ae41d17ab5f41cbd7a6/peid3.ADSR.Sounds..Power.Mixing.in.Logic.Pro.X.2016.part1.rar.html
http://rapidgator.net/file/1d90549af78e1c70ff45734a52cc891c/peid3.ADSR.Sounds..Power.Mixing.in.Logic.Pro.X.2016.part2.rar.html
http://rapidgator.net/file/05f7d46bc02dcba294007dc95c9df9b8/peid3.ADSR.Sounds..Power.Mixing.in.Logic.Pro.X.2016.part3.rar.html
http://rapidgator.net/file/b15a39b386c6c989fb1b176b27cdd819/peid3.ADSR.Sounds..Power.Mixing.in.Logic.Pro.X.2016.part4.rar.html
http://rapidgator.net/file/b429f8022b4dbd0349e22242231c8e18/peid3.ADSR.Sounds..Power.Mixing.in.Logic.Pro.X.2016.part5.rar.html
Links are Interchangeable - Single Extraction - Premium is support resumable
Direct Download


Tags: Sounds, Mixing


ADSR Sounds - Power Mixing in Logic Pro X (2016) Fast Download via Rapidshare Hotfile Fileserve Filesonic Megaupload, ADSR Sounds - Power Mixing in Logic Pro X (2016) Torrents and Emule Download or anything related.
Dear visitor, you went to website as unregistered user.
We encourage you to Register or Login to website under your name.

Add comments

Name:*
E-Mail:*
Comments:
Enter Code: *