Information of news
 (Votes #: 0)

Ella Klassen - InstaOptins (2016)

Category: Tutorial

Download Now

http://s2.1pic.org/files/2016/07/28/0e1c5f29a242b13c0197.jpg
Ella Klassen - InstaOptins
WEBRip | English | MP4 + PDF Guides | 1920 x 1080 | AVC ~476 kbps | 23.976 fps
AAC | 235 Kbps | 48.0 KHz | 2 channels | 01:59:03 | 700 MB
Genre: eLearning Video / Business, Sales, Marketing

I was recently asked if I had to start over in business what's the #1 thing I would do differently. My answer? I would focus more time on building my email list! That's why I love InstaOptins. This course will help you build your list the correct way, right from the start. I strongly encourage you to follow the suggestions and take action on them!" - Chris Record
- Self-Made Internet Millionaire and Founder of Smart Member
Let Me Take You On a Journey...
As you know, social media is on the rise. More and more marketers are getting into social media and are desperately trying to figure out how it all works!
Whether it is Facebook, Twitter, Instagram, YouTube, Pinterest, Google+ just to name a few. There are so many social media sites out there that it can be very intimidating to open another social media account.
As you may have guessed it already, InstaOptins is all about Instagram. But don't worry, in order to use this traffic strategy, you don't need a ton of followers, or even be actively posting on Instagram. In fact, it's not about your personal Instagram account at all!
It's a ninja strategy that no one is talking about yet and you're literally minutes away from mastering the MOST simple, yet powerful Instagram traffic strategy ever existed. A few weeks ago, I accidentally stumbled upon what I believe, a gold mine - which I have never shared with the general public until NOW. To make sure you are ahead of your competition - I highly suggest you get your hands on it TODAY!
InstaOptins is a simple, yet very powerful, step-by-step course specifically designed to help you get 100+ optins within the next 24-48 hours, and build a MASSIVE list from then on in practically any niche you can think of!
It doesn't matter if you are a newbie or a veteran in online marketing - this strategy is one of the most powerful strategies on the internet today - whether your goal is to start building your list from scratch or expand your list to thousands of active subscribers!
Price: $997
More Info:

also You can watch my other last:
MediaInfo:

General
Complete name : Module9.mp4
Format : MPEG-4
Format profile : Base Media
Codec ID : isom
File size : 46.5 MiB
Duration : 9mn 4s
Overall bit rate : 717 Kbps
Movie name : Module9
Performer :
Tagged date : UTC 2016-04-25 07:59:42
Writing application : Lavf54.29.104
hdvd : 0
stik : 9
cnID : 0
Video
ID : 1
Format : AVC
Format/Info : Advanced Video Codec
Format profile : HighL4.0
Format settings, CABAC : Yes
Format settings, ReFrames : 4 frames
Codec ID : avc1
Codec ID/Info : Advanced Video Coding
Duration : 9mn 4s
Bit rate : 476 Kbps
Nominal bit rate : 509 Kbps
Width : 1 920 pixels
Height : 1 080 pixels
Display aspect ratio : 16:9
Frame rate mode : Constant
Frame rate : 23.976 fps
Color space : YUV
Chroma subsampling : 4:2:0
Bit depth : 8 bits
Scan type : Progressive
Bits/(Pixel*Frame) : 0.010
Stream size : 30.9 MiB (66%)
Writing library : x264 core 129
Encoding settings : cabac=1 / ref=3 / deblock=1:0:0 / analyse=0x3:0x113 / me=hex / subme=7 / psy=1 / psy_rd=1.00:0.00 / mixed_ref=1 / me_range=16 / chroma_me=1 / trellis=1 / 8x8dct=1 / cqm=0 / deadzone=21,11 / fast_pskip=1 / chroma_qp_offset=-2 / threads=9 / lookahead_threads=1 / sliced_threads=0 / nr=0 / decimate=1 / interlaced=0 / bluray_compat=0 / constrained_intra=0 / bframes=3 / b_pyramid=2 / b_adapt=1 / b_bias=0 / direct=1 / weightb=1 / open_gop=0 / weightp=2 / keyint=250 / keyint_min=23 / scenecut=40 / intra_refresh=0 / rc_lookahead=40 / rc=abr / mbtree=1 / bitrate=509 / ratetol=1.0 / qcomp=0.60 / qpmin=0 / qpmax=69 / qpstep=4 / ip_ratio=1.40 / aq=1:1.00
Audio
ID : 2
Format : AAC
Format/Info : Advanced Audio Codec
Format profile : LC
Codec ID : 40
Duration : 9mn 4s
Bit rate mode : Constant
Bit rate : 235 Kbps
Channel(s) : 2 channels
Channel positions : Front: L R
Sampling rate : 48.0 KHz
Compression mode : Lossy
Delay relative to video : -250ms
Stream size : 15.3 MiB (33%)
Text
ID : 3
Format : Apple text
Codec ID : text
Duration : 9mn 4s
Bit rate : 0 bps
Delay relative to video : -250ms
Stream size : 23.0 Bytes (0%)
Encoded date : UTC 2016-04-25 07:59:42
Tagged date : UTC 2016-04-25 07:59:42
Screenshots

http://s2.1pic.org/files/2016/07/28/db70f67c68dad450d4fd.jpg

http://s2.1pic.org/files/2016/07/28/3293673ed790bdb33d1c.jpg

http://s2.1pic.org/files/2016/07/28/a1c7faad090acee7ae55.jpg





Download link:
filejoker_net:
https://filejoker.net/pj9z531zw0o7/a88tq.Ella.Klassen..InstaOptins.2016.part1.rar
https://filejoker.net/bpn9facanxno/a88tq.Ella.Klassen..InstaOptins.2016.part2.rar
https://filejoker.net/pibhmvp9xf26/a88tq.Ella.Klassen..InstaOptins.2016.part3.rar
https://filejoker.net/r16kqsm304gu/a88tq.Ella.Klassen..InstaOptins.2016.part4.rar
https://filejoker.net/r7tonyosmsbp/a88tq.Ella.Klassen..InstaOptins.2016.part5.rar
https://filejoker.net/yo7d9kgy2qjg/a88tq.Ella.Klassen..InstaOptins.2016.part6.rar
https://filejoker.net/jlf9m5wcys3g/a88tq.Ella.Klassen..InstaOptins.2016.part7.rar
https://filejoker.net/ttwgrj9b3p5l/a88tq.Ella.Klassen..InstaOptins.2016.part8.rar

ausfile_com:
https://ausfile.com/izoky41frdly/a88tq.Ella.Klassen..InstaOptins.2016.part1.rar.html
https://ausfile.com/1y2f8zyu5eqf/a88tq.Ella.Klassen..InstaOptins.2016.part2.rar.html
https://ausfile.com/mlctgf7zemll/a88tq.Ella.Klassen..InstaOptins.2016.part3.rar.html
https://ausfile.com/d33due72luln/a88tq.Ella.Klassen..InstaOptins.2016.part4.rar.html
https://ausfile.com/c5rm0owc3e7k/a88tq.Ella.Klassen..InstaOptins.2016.part5.rar.html
https://ausfile.com/ni6eqq9ii93s/a88tq.Ella.Klassen..InstaOptins.2016.part6.rar.html
https://ausfile.com/c8jtig4p39lu/a88tq.Ella.Klassen..InstaOptins.2016.part7.rar.html
https://ausfile.com/4tle4sct1oh8/a88tq.Ella.Klassen..InstaOptins.2016.part8.rar.html

Rapidgator:
http://rapidgator.net/file/d201f2ba7cae0f3cfc7f5f5973a30952/a88tq.Ella.Klassen..InstaOptins.2016.part1.rar.html
http://rapidgator.net/file/9c36e9e7732e6f90eb59dc8afb32e1fa/a88tq.Ella.Klassen..InstaOptins.2016.part2.rar.html
http://rapidgator.net/file/dada468429d814618fa7722bcbaa5a1f/a88tq.Ella.Klassen..InstaOptins.2016.part3.rar.html
http://rapidgator.net/file/6b30f28ef322082f615731259470d33c/a88tq.Ella.Klassen..InstaOptins.2016.part4.rar.html
http://rapidgator.net/file/2bed85b90e3dc4d1642efceb204da060/a88tq.Ella.Klassen..InstaOptins.2016.part5.rar.html
http://rapidgator.net/file/23e5e4fd4cb100393d4aca187a45f9f3/a88tq.Ella.Klassen..InstaOptins.2016.part6.rar.html
http://rapidgator.net/file/1008fe1bde5e1f96b415bb6ab9d32692/a88tq.Ella.Klassen..InstaOptins.2016.part7.rar.html
http://rapidgator.net/file/c44715189807d7ce36ed46eade9c40bc/a88tq.Ella.Klassen..InstaOptins.2016.part8.rar.html
Links are Interchangeable - Single Extraction - Premium is support resumable
Direct Download


Tags: Klassen, InstaOptins


Ella Klassen - InstaOptins (2016) Fast Download via Rapidshare Hotfile Fileserve Filesonic Megaupload, Ella Klassen - InstaOptins (2016) Torrents and Emule Download or anything related.
Dear visitor, you went to website as unregistered user.
We encourage you to Register or Login to website under your name.

Add comments

Name:*
E-Mail:*
Comments:
Enter Code: *