Information of news
  • Views: 0
  • Author: Oliver
  • Date: 25-07-2016, 13:48
 (Votes #: 0)

Pro Studio Live - Rock Mixing Session with Bob Horn (2016)

Category: Tutorial

Download Now


Pro Studio Live - Rock Mixing Session with Bob Horn (2016)
Pro Studio Live - Rock Mixing Session (2016)
WEBRip | English | MP4 + Project files | 1280 x 716 | AVC ~1087 kbps | 29.970 fps
AAC | 160 Kbps | 48.0 KHz | 2 channels | 03:19:22 | 3.19 GB
Genre: Video Tutorial / Sound Processing



Watch Bob Horn, a Grammy Award winning mixing engineer who's worked with artists such as, Usher, Timbaland, Akon, Ne-Yo, Brian Culbertson, Macy Gray, Michael Jackson, Jay-Z, and many more, mix a song from the band Mayfield from start to finish. You'll see the whole mixing process from drums, bass, guitars vocals, automation and much more.

First, Bob will show you the tracks that he is working on and the edits he made in order to facilitate his mixing style. This session was recorded by Bob Horn at Signature Sound, which you can find in our archives if you want to see how this was tracked more in depth. This is a pop rock song that has traditional elements like drums, bass, acoustic and electric guitars and vocals. Bob Horn will pick out details in each element he adds to the mix and will address them with his own techniques. Not only does he demonstrate his favorite gear, but he will also explain why and in which cases it's useful. He will mix mostly in the box but he will also use some of his outboard gear. By watching every move Bob Horn makes, you will get to see and hear why his decisions are so effective and his mixing workflow so efficient.
MediaInfo:
General
Complete name : Bob Horn Mixing Session Episode 1.mp4
Format : MPEG-4
Format profile : Base Media / Version 2
Codec ID : mp42 (mp42/mp41/isom/avc1)
File size : 437 MiB
Duration : 48mn 46s
Overall bit rate mode : Variable
Overall bit rate : 1 251 Kbps
Encoded date : UTC 2015-05-18 20:54:40
Tagged date : UTC 2015-05-18 20:54:40
Video
ID : 1
Format : AVC
Format/Info : Advanced Video Codec
Format settings, CABAC : Yes
Format settings, ReFrames : 4 frames
Codec ID : avc1
Codec ID/Info : Advanced Video Coding
Duration : 48mn 46s
Bit rate : 1 087 Kbps
Width : 1 280 pixels
Height : 716 pixels
Display aspect ratio : 16:9
Frame rate mode : Constant
Frame rate : 29.970 (30000/1001) fps
Color space : YUV
Chroma subsampling : 4:2:0
Bit depth : 8 bits
Scan type : Progressive
Bits/(Pixel*Frame) : 0.040
Stream size : 379 MiB (87%)
Writing library : x264 core 146 r16 121396c
Encoding settings : cabac=1 / ref=3 / deblock=1:0:0 / analyse=0x3:0x113 / me=hex / subme=7 / psy=1 / psy_rd=1.00:0.00 / mixed_ref=1 / me_range=16 / chroma_me=1 / trellis=1 / 8x8dct=1 / cqm=0 / deadzone=21,11 / fast_pskip=1 / chroma_qp_offset=-2 / threads=84 / lookahead_threads=5 / sliced_threads=0 / nr=0 / decimate=1 / interlaced=0 / bluray_compat=0 / stitchable=1 / constrained_intra=0 / bframes=3 / b_pyramid=2 / b_adapt=1 / b_bias=0 / direct=1 / weightb=1 / open_gop=0 / weightp=2 / keyint=infinite / keyint_min=29 / scenecut=40 / intra_refresh=0 / rc_lookahead=40 / rc=crf / mbtree=1 / crf=20.0 / qcomp=0.60 / qpmin=5 / qpmax=69 / qpstep=4 / vbv_maxrate=2750 / vbv_bufsize=7500 / crf_max=0.0 / nal_hrd=none / filler=0 / ip_ratio=1.40 / aq=1:1.00
Encoded date : UTC 2015-05-18 20:54:40
Tagged date : UTC 2015-05-18 20:54:40
Color range : Limited
Color primaries : BT.709
Transfer characteristics : BT.709
Matrix coefficients : BT.709
Audio
ID : 2
Format : AAC
Format/Info : Advanced Audio Codec
Format profile : LC
Codec ID : 40
Duration : 48mn 46s
Bit rate mode : Variable
Bit rate : 160 Kbps
Channel(s) : 2 channels
Channel positions : Front: L R
Sampling rate : 48.0 KHz
Frame rate : 46.875 fps (1024 spf)
Compression mode : Lossy
Stream size : 55.8 MiB (13%)
Encoded date : UTC 2015-05-18 20:54:40
Tagged date : UTC 2015-05-18 20:54:40
Screenshots
Pro Studio Live - Rock Mixing Session with Bob Horn (2016)
Pro Studio Live - Rock Mixing Session with Bob Horn (2016)
Pro Studio Live - Rock Mixing Session with Bob Horn (2016)

I recommends Buy premimum account for High speed+parallel downloads!

Rapidgator


Nitroflare

Direct Download


Tags: Studio, Mixing, Session


Pro Studio Live - Rock Mixing Session with Bob Horn (2016) Fast Download via Rapidshare Hotfile Fileserve Filesonic Megaupload, Pro Studio Live - Rock Mixing Session with Bob Horn (2016) Torrents and Emule Download or anything related.
Dear visitor, you went to website as unregistered user.
We encourage you to Register or Login to website under your name.

Add comments

Name:*
E-Mail:*
Comments:
Enter Code: *