Information of news
  • Views: 0
  • Author: AutumnRU
  • Date: 17-07-2016, 23:24
 (Votes #: 0)

Michael Mackintosh - I Am Wealth

Category: Tutorial

Download Now

Michael Mackintosh - I Am Wealth
Michael Mackintosh - I Am Wealth
WEBRip | English | MP4 + MP3 + PDF Guides | 640 x 360 | AVC ~751 kbps | 29.970 fps
AAC | 126 Kbps | 44.1 KHz | 2 channels | 00:53:03 | 1.12 GB
Genre: eLearning Video / Business, Economics, Finance


A Spiritual Way to Create Wealth I AM WEALTH: The Secrets to Divine Abundance is a powerful, easy-to-use wealth-creation program that deeply transforms your personal inner world (the level of cause), and naturally manifests wealth and abundance into your life.

Many people hopelessly live out their lives experiencing various forms of poverty and lack because of conditioned beliefs towards money that have cut them off from the abundance they innately deserve.
This unique, 40-day, audio/visual program deeply empowers you from the inside, overcoming negative belief systems at their core and creating new healthy ones.
By bringing you back into harmony with abundance, you can begin to receive the wealth you deserve. Right now, you are part of a rich universe and it is your birthright to experience that abundance. Claim back what is yours... today!
Wealth Thermostat
LOSE THE GAP AND START CREATING WEALTH NOW
I'm so happy you are ready to close the GAP between the wealth you have NOW and the wealth you want.
By reading this it proves you are ready take your wealth creation seriously. You are about to discover the missing tools you need to make more money and crack the code on wealth creation once and for all.
Here's what you will get
Transformative High Quality Recording
In this recording you will learn:
* How to turn up your Wealth Thermostat; how it works and what you need to know to make sure you do it right! (Without turning up your wealth thermostat, not matter what you do, you simply WILL NOT be able to increase your cash flow)
* The secrets about your 'Upper Wealth Limits'; how they are holding you back and what you can do about it.
* The 3 biggest mistakes people make (and these things keep them stuck no matter what they do)
* You will also discover the 3-Step system to free yourself from your upper wealth limits forever so you can easily manifest more abundance in your life starting TODAY.
* PLUS. How to discover and look out for 'hidden wealth clues' that you may not have noticed; and when you do you will be able to increase your abundance and discover previously hidden opportunities.
   MediaInfo:            GeneralComplete name                            : Infinite Abundance.mp4Format                                   : MPEG-4Format profile                           : Base MediaCodec ID                                 : isomFile size                                : 47.6 MiBDuration                                 : 7mn 33sOverall bit rate mode                    : VariableOverall bit rate                         : 881 KbpsEncoded date                             : UTC 2010-07-19 07:52:29Tagged date                              : UTC 2010-07-20 07:52:32VideoID                                       : 1Format                                   : AVCFormat/Info                              : Advanced Video CodecFormat profile                           : [email protected] settings, CABAC                   : YesFormat settings, ReFrames                : 4 framesCodec ID                                 : avc1Codec ID/Info                            : Advanced Video CodingDuration                                 : 7mn 33sBit rate                                 : 751 KbpsMaximum bit rate                         : 1 331 KbpsWidth                                    : 640 pixelsHeight                                   : 360 pixelsDisplay aspect ratio                     : 16:9Frame rate mode                          : ConstantFrame rate                               : 29.970 fpsColor space                              : YUVChroma subsampling                       : 4:2:0Bit depth                                : 8 bitsScan type                                : ProgressiveBits/(Pixel*Frame)                       : 0.109Stream size                              : 40.6 MiB (85%)Writing library                          : Vimeo EncoderEncoded date                             : UTC 2010-07-19 07:52:29Tagged date                              : UTC 2010-07-19 07:52:31AudioID                                       : 2Format                                   : AACFormat/Info                              : Advanced Audio CodecFormat profile                           : LCCodec ID                                 : 40Duration                                 : 7mn 33sBit rate mode                            : VariableBit rate                                 : 126 KbpsMaximum bit rate                         : 151 KbpsChannel(s)                               : 2 channelsChannel positions                        : Front: L RSampling rate                            : 44.1 KHzCompression mode                         : LossyStream size                              : 6.79 MiB (14%)Encoded date                             : UTC 2010-07-19 07:52:30Tagged date                              : UTC 2010-07-19 07:52:31


Michael Mackintosh - I Am Wealth

Michael Mackintosh - I Am Wealth

Michael Mackintosh - I Am Wealth
[/center]

DOWNLOAD
(Buy premium account for maximum speed and resumming ability)

Direct Download


Tags: Michael, Mackintosh, Wealth


Michael Mackintosh - I Am Wealth Fast Download via Rapidshare Hotfile Fileserve Filesonic Megaupload, Michael Mackintosh - I Am Wealth Torrents and Emule Download or anything related.
Dear visitor, you went to website as unregistered user.
We encourage you to Register or Login to website under your name.

Add comments

Name:*
E-Mail:*
Comments:
Enter Code: *