Information of news
 (Votes #: 0)

Soundslice - Acoustic fingerstyle guitar Vol. 1 with Todd Pritchard

Category: Tutorial

Download Now

Soundslice - Acoustic fingerstyle guitar Vol. 1 with Todd Pritchard

Soundslice - Acoustic fingerstyle guitar Vol. 1
WEBRip | MP4 | English | 960 x 540 | AVC ~926 kbps | 23.976 fps
AAC | 166 Kbps | 48.0 KHz | 2 channels | 01:47:03 | 970 MB
Genre: eLearning Video / Guitar lesson

10 original fingerstyle compositions with a variety of feels and melodic approaches. 100 + minutes of video lessons.

Todd Pritchard is back with another Soundslice-exclusive course. In this extensive series of video lessons, he walks you through 10 of his original fingerstyle compositions.

Each lesson includes a complete performance of the tune and is followed by an in-depth discussion of how to play it. Use the Soundslice interface to view synced tablature, standard notation and chord diagrams; slow down the video without changing the pitch; loop sections you're having trouble with and more.

Here's what you can expect to learn in this course:

* New tunings, with exotic chord voicings that aren't possible in standard tuning.
* How to add harmonics and right-hand percussion techniques to your playing.
* New ways to voice first-position chords while incorporating chord melody.
* Practice tips and theoretical/compositional approaches.

This course uses multi-angle video, which lets you see the fretboard hand and nuances in picking-hand technique. The compositions range from beginner level to advanced.

also You can look my other last: MediaInfo: General
Complete name : Peculiar Mood - Todd Pritchard - Soundslice.MP4
Format
: MPEG-4
Format profile : Base Media / Version 2
Codec ID
: mp42
File size
: 148 MiB
Duration
: 18mn 51s
Overall bit rate mode : Variable
Overall bit rate : 1 098 Kbps
Encoded date : UTC 2015-12-14 22:37:10
Tagged date
: UTC 2015-12-14 22:37:10
Writing application

: HandBrake 0.10.2 2015061100

Video
ID : 1
Format
: AVC
Format/Info
: Advanced Video Codec
Format profile : [email protected]
Format settings, CABAC : Yes
Format settings, ReFrames : 4 frames
Codec ID
: avc1
Codec ID/Info : Advanced Video Coding
Duration
: 18mn 51s
Bit rate
: 926 Kbps
Width
: 960 pixels
Height
: 540 pixels
Display aspect ratio : 16:9
Frame rate mode : Variable
Frame rate
: 23.976 fps
Minimum frame rate

: 23.974 fps
Maximum frame rate

: 23.981 fps
Color space
: YUV
Chroma subsampling

: 4:2:0
Bit depth
: 8 bits
Scan type
: Progressive
Bits/(Pixel*Frame)

: 0.075
Stream size
: 125 MiB (84%)
Writing library : x264 core 142 r2479 dd79a61
Encoding settings: cabac=1 / ref=1 / deblock=1:0:0 / analyse=0x1:0x111 / me=hex / subme=2 / psy=1 / psy_rd=1.00:0.00 / mixed_ref=0 / me_range=16 / chroma_me=1 / trellis=0 / 8x8dct=0 / cqm=0 / deadzone=21,11 / fast_pskip=1 / chroma_qp_offset=0 / threads=6 / lookahead_threads=2 / sliced_threads=0 / nr=0 / decimate=1 / interlaced=0 / bluray_compat=0 / constrained_intra=0 / bframes=3 / b_pyramid=2 / b_adapt=1 / b_bias=0 / direct=1 / weightb=1 / open_gop=0 / weightp=1 / keyint=240 / keyint_min=24 / scenecut=40 / intra_refresh=0 / rc_lookahead=10 / rc=crf / mbtree=1 / crf=20.0 / qcomp=0.60 / qpmin=0 / qpmax=69 / qpstep=4 / vbv_maxrate=20000 / vbv_bufsize=25000 / crf_max=0.0 / nal_hrd=none / filler=0 / ip_ratio=1.40 / aq=1:1.00
Encoded date : UTC 2015-12-14 22:37:10
Tagged date
: UTC 2015-12-14 22:37:10
Color primaries : BT.709-5, BT.1361, IEC 61966-2-4, SMPTE RP177
Transfer characteristics : BT.709-5, BT.1361
Matrix coefficients

: BT.709-5, BT.1361, IEC 61966-2-4 709, SMPTE RP177

Audio
ID : 2
Format
: AAC
Format/Info
: Advanced Audio Codec
Format profile : LC
Codec ID
: 40
Duration
: 18mn 51s
Bit rate mode : Variable
Bit rate
: 166 Kbps
Channel(s)
: 2 channels
Channel positions: Front: L R
Sampling rate : 48.0 KHz
Compression mode : Lossy
Delay relative to video : -7s 507ms
Stream size
: 22.3 MiB (15%)
Title
: Stereo
Encoded date : UTC 2015-12-14 22:37:10
Tagged date
: UTC 2015-12-14 22:37:10



Soundslice - Acoustic fingerstyle guitar Vol. 1 with Todd Pritchard
Soundslice - Acoustic fingerstyle guitar Vol. 1 with Todd Pritchard
Soundslice - Acoustic fingerstyle guitar Vol. 1 with Todd Pritchard
Soundslice - Acoustic fingerstyle guitar Vol. 1 with Todd Pritchard



DOWNLOAD LINKS:
Buy Premium To Support Me & Get Resumable Support & Max Speed


Links are Interchangeable - No Password - Single Extraction
Direct Download


Tags: Soundslice, Acoustic, fingerstyle, guitar, Pritchard


Soundslice - Acoustic fingerstyle guitar Vol. 1 with Todd Pritchard Fast Download via Rapidshare Hotfile Fileserve Filesonic Megaupload, Soundslice - Acoustic fingerstyle guitar Vol. 1 with Todd Pritchard Torrents and Emule Download or anything related.
Dear visitor, you went to website as unregistered user.
We encourage you to Register or Login to website under your name.

Add comments

Name:*
E-Mail:*
Comments:
Enter Code: *