Information of news
 (Votes #: 0)

Dream Dropshipping The Online Empire Academy

Category: Tutorial

Download Now

Dream Dropshipping   The Online Empire Academy

Dream Dropshipping - The Online Empire Academy
WEBRip | English | MP4 + PDF Guides | 1280 x 720 | AVC ~370 kbps | 30 fps
AAC | 126 Kbps | 44.1 KHz | 2 channels | ~14 hours | 3.23 GB
Genre: eLearning Video / Business, Job

==

Why Dropship and How to Get Started Quickly Finding Ideas for Product In this video we go through how to find your idea to that you can start seeking out vendors. Contacting vendors after you found the idea you want to go for In this video you'll learn how to reach out to vendors for a particular product idea so that you can start profiting quickly.
Contents:
Prior student shares the #1 secret to securing new vendors
Behind the scenes talk with a student on how they found their vendors and started making a profit quickly. He also shares the #1 thing people need to do in order to secure vendors consistently.
Dream Dropshipping Week 2 - Listing and More Vendor Stuff
Dream Dropshipping Week 3 - Advanced Listing and Some Automation
Dream Dropshipping Week 4 - Advanced Automation
MediaInfo:GeneralComplete name    : 2.Contacting vendors after you found the idea you want to go for.mp4Format
     : MPEG-4Format profile   : Base Media / Version 2Codec ID
   : mp42File size
  : 39.7 MiBDuration
   : 11mn 8sOverall bit rate mode                    : VariableOverall bit rate : 498 KbpsEncoded date     : UTC 2016-03-01 23:20:22Tagged date
: UTC 2016-03-01 23:20:22VideoID : 1Format
     : AVCFormat/Info
: Advanced Video CodecFormat profile   : Format settings, CABAC                   : YesFormat settings, ReFrames                : 3 framesCodec ID
   : avc1Codec ID/Info    : Advanced Video CodingDuration
   : 11mn 8sBit rate mode    : VariableBit rate
   : 370 KbpsWidth
      : 1 280 pixelsHeight
     : 720 pixelsDisplay aspect ratio                     : 16:9Frame rate mode  : ConstantFrame rate
: 30.000 fpsStandard
   : NTSCColor space
: YUVChroma subsampling

: 4:2:0Bit depth
: 8 bitsScan type
  : ProgressiveBits/(Pixel*Frame)

: 0.013Stream size
: 29.5 MiB (74%)Language
   : EnglishEncoded date     : UTC 2016-03-01 23:20:22Tagged date
: UTC 2016-03-01 23:20:22AudioID : 2Format
     : AACFormat/Info
: Advanced Audio CodecFormat profile   : LCCodec ID
  : 40Duration
   : 11mn 8sBit rate mode    : VariableBit rate
   : 126 KbpsMaximum bit rate : 230 KbpsChannel(s)
: 2 channelsChannel positions: Front: L RSampling rate    : 44.1 KHzCompression mode : LossyStream size
: 10.0 MiB (25%)Language
   : EnglishEncoded date     : UTC 2016-03-01 23:20:22Tagged date
: UTC 2016-03-01 23:20:22


Dream Dropshipping   The Online Empire Academy

Dream Dropshipping   The Online Empire Academy

Dream Dropshipping   The Online Empire Academy

Dream Dropshipping   The Online Empire Academy

DOWNLOAD LINKS:
Buy Premium To Support Me & Get Resumable Support & Max Speed


Links are Interchangeable - No Password - Single Extraction
Direct Download


Tags: Dropshipping, Online, Empire, Academy


Dream Dropshipping The Online Empire Academy Fast Download via Rapidshare Hotfile Fileserve Filesonic Megaupload, Dream Dropshipping The Online Empire Academy Torrents and Emule Download or anything related.
Dear visitor, you went to website as unregistered user.
We encourage you to Register or Login to website under your name.

Add comments

Name:*
E-Mail:*
Comments:
Enter Code: *