Information of news
 (Votes #: 0)

Martin Graff - Making Internet Dating Work for You [repost]

Category: Tutorial

Download Now

Martin Graff - Making Internet Dating Work for You [repost]

Martin Graff - Making Internet Dating Work for You

WEBRip | MP4 + MP3 | English | 1280 x 720 | AVC ~2273 kbps | 25 fps
AAC ~160 Kbps | 48.0 KHz | 2 channels | 1h 27mn | 1.56 GB

Genre: eLearning Video / Dating, Relationships, Sex, Psychology

Let Martin help to increase your chances of meeting someone through online dating and Apps! The world of online dating is a dynamic one with things constantly changing. There are now multitudes of online dating sites, including those dedicated to finding partners for casual affairs. It is therefore imperative to keep ahead of the game in online dating.

So how can you maximize your chances of finding a romantic partner online? How do other people actually portray themselves online? How do you come across to others online? This session will answer all of these questions and more.

In this workshop session Dr Graff will also give some practical advice on:

* Finding the right dating site or app for you.
* How to construct your dating site profile for maximum effect
* How to interact with others online - the way to approach an online liaison with a potential dating partner.
* The first steps in a first face-to-face meeting.


MediaInfo:


General
Complete name : Martin Graff - Making internet dating work for you.mp4
Format : MPEG-4
Format profile : Base Media / Version 2
Codec ID : mp42
File size : 1.49 GiB
Duration : 1h 27mn
Overall bit rate mode : Variable
Overall bit rate : 2 437 Kbps
Encoded date : UTC 2014-11-18 13:00:20
Tagged date : UTC 2014-11-18 13:00:20

Video
ID : 1
Format : AVC
Format/Info : Advanced Video Codec
Format profile : [email protected]
Format settings, CABAC : Yes
Format settings, ReFrames : 4 frames
Codec ID : avc1
Codec ID/Info : Advanced Video Coding
Duration : 1h 27mn
Bit rate : 2 273 Kbps
Width : 1 280 pixels
Height : 720 pixels
Display aspect ratio : 16:9
Frame rate mode : Constant
Frame rate : 25.000 fps
Color space : YUV
Chroma subsampling : 4:2:0
Bit depth : 8 bits
Scan type : Progressive
Bits/(Pixel*Frame) : 0.099
Stream size : 1.39 GiB (93%)
Writing library : x264 core 142 r11 dd79a61
Encoding settings : cabac=1 / ref=3 / deblock=1:0:0 / analyse=0x3:0x113 / me=hex / subme=7 / psy=1 / psy_rd=1.00:0.00 / mixed_ref=1 / me_range=16 / chroma_me=1 / trellis=1 / 8x8dct=1 / cqm=0 / deadzone=21,11 / fast_pskip=1 / chroma_qp_offset=-2 / threads=48 / lookahead_threads=5 / sliced_threads=0 / nr=0 / decimate=1 / interlaced=0 / bluray_compat=0 / stitchable=1 / constrained_intra=0 / bframes=3 / b_pyramid=2 / b_adapt=1 / b_bias=0 / direct=1 / weightb=1 / open_gop=0 / weightp=2 / keyint=75 / keyint_min=25 / scenecut=40 / intra_refresh=0 / rc_lookahead=40 / rc=crf / mbtree=1 / crf=20.0 / qcomp=0.60 / qpmin=5 / qpmax=69 / qpstep=4 / vbv_maxrate=2750 / vbv_bufsize=7500 / crf_max=0.0 / nal_hrd=none / filler=0 / ip_ratio=1.40 / aq=1:1.00
Encoded date : UTC 2014-11-18 13:00:20
Tagged date : UTC 2014-11-18 13:00:20
Color primaries : BT.709-5, BT.1361, IEC 61966-2-4, SMPTE RP177
Transfer characteristics : BT.709-5, BT.1361
Matrix coefficients : BT.709-5, BT.1361, IEC 61966-2-4 709, SMPTE RP177

Audio
ID : 2
Format : AAC
Format/Info : Advanced Audio Codec
Format profile : LC
Codec ID : 40
Duration : 1h 27mn
Bit rate mode : Variable
Bit rate : 160 Kbps
Channel(s) : 2 channels
Channel positions : Front: L R
Sampling rate : 48.0 KHz
Compression mode : Lossy
Delay relative to video : -3ms
Stream size : 100 MiB (7%)
Encoded date : UTC 2014-11-18 13:00:20
Tagged date : UTC 2014-11-18 13:00:20
Download link:

Buy Premium To Support Me & Get Resumable Support & Max Speed:

rapidgator_net:
http://rapidgator.net/file/1483ede0f473cab47956f490a0c89cc5/1suy5.Martin.Graff..Making.Internet.Dating.Work.for.You.repost.part1.rar.html
http://rapidgator.net/file/9549724a0411d8f4970ee0cf4a0d7732/1suy5.Martin.Graff..Making.Internet.Dating.Work.for.You.repost.part2.rar.html
http://rapidgator.net/file/ddb643d356ea4ebf673337eff71460cc/1suy5.Martin.Graff..Making.Internet.Dating.Work.for.You.repost.part3.rar.html
http://rapidgator.net/file/f27d00babb66887de26c153434e31ac7/1suy5.Martin.Graff..Making.Internet.Dating.Work.for.You.repost.part4.rar.html
http://rapidgator.net/file/a27dd076bfd6c8e623c49b6ecc2d13c8/1suy5.Martin.Graff..Making.Internet.Dating.Work.for.You.repost.part5.rar.html
http://rapidgator.net/file/28b487b45a283372f82f6f53f1392252/1suy5.Martin.Graff..Making.Internet.Dating.Work.for.You.repost.part6.rar.html

nitroflare_com:
http://nitroflare.com/view/2F12BB49B7031FB/1suy5.Martin.Graff..Making.Internet.Dating.Work.for.You.repost.part1.rar
http://nitroflare.com/view/4C88BAC433FBA88/1suy5.Martin.Graff..Making.Internet.Dating.Work.for.You.repost.part2.rar
http://nitroflare.com/view/DDB28AB43290A9E/1suy5.Martin.Graff..Making.Internet.Dating.Work.for.You.repost.part3.rar
http://nitroflare.com/view/1ABFB5CD95E5D64/1suy5.Martin.Graff..Making.Internet.Dating.Work.for.You.repost.part4.rar
http://nitroflare.com/view/9D07665312DC6E7/1suy5.Martin.Graff..Making.Internet.Dating.Work.for.You.repost.part5.rar
http://nitroflare.com/view/26D331F607C2A9B/1suy5.Martin.Graff..Making.Internet.Dating.Work.for.You.repost.part6.rar

uploaded_net:
http://uploaded.net/file/8vc2wsfc/1suy5.Martin.Graff..Making.Internet.Dating.Work.for.You.repost.part1.rar
http://uploaded.net/file/iyp5gmsb/1suy5.Martin.Graff..Making.Internet.Dating.Work.for.You.repost.part2.rar
http://uploaded.net/file/xckom2xm/1suy5.Martin.Graff..Making.Internet.Dating.Work.for.You.repost.part3.rar
http://uploaded.net/file/bv5193um/1suy5.Martin.Graff..Making.Internet.Dating.Work.for.You.repost.part4.rar
http://uploaded.net/file/dmxe4nkx/1suy5.Martin.Graff..Making.Internet.Dating.Work.for.You.repost.part5.rar
http://uploaded.net/file/ex7z8tfk/1suy5.Martin.Graff..Making.Internet.Dating.Work.for.You.repost.part6.rar

bigfile_to:
https://www.bigfile.to/file/V4vjhZXV752F/1suy5.Martin.Graff..Making.Internet.Dating.Work.for.You.repost.part1.rar
https://www.bigfile.to/file/RR2n7nx5VxY3/1suy5.Martin.Graff..Making.Internet.Dating.Work.for.You.repost.part2.rar
https://www.bigfile.to/file/Q7rGwFcS28K9/1suy5.Martin.Graff..Making.Internet.Dating.Work.for.You.repost.part3.rar
https://www.bigfile.to/file/VdatcTvDdP3X/1suy5.Martin.Graff..Making.Internet.Dating.Work.for.You.repost.part4.rar
https://www.bigfile.to/file/66FasJvdhPXM/1suy5.Martin.Graff..Making.Internet.Dating.Work.for.You.repost.part5.rar
https://www.bigfile.to/file/TH33JhuSsbDx/1suy5.Martin.Graff..Making.Internet.Dating.Work.for.You.repost.part6.rar


Links are Interchangeable - No Password - Single Extraction
Direct Download


Tags: Martin, Making, Internet, Dating, repost


Martin Graff - Making Internet Dating Work for You [repost] Fast Download via Rapidshare Hotfile Fileserve Filesonic Megaupload, Martin Graff - Making Internet Dating Work for You [repost] Torrents and Emule Download or anything related.
Dear visitor, you went to website as unregistered user.
We encourage you to Register or Login to website under your name.

Add comments

Name:*
E-Mail:*
Comments:
Enter Code: *