Information of news
 (Votes #: 0)

David Tian - How to Demolish Your Deepest Insecurities Using Honesty (2016)

Category: Tutorial

Download Now

David Tian - How to Demolish Your Deepest Insecurities Using Honesty (2016)

David Tian - How to Demolish Your Deepest Insecurities Using Honesty (2016)

WEBRip | AVI | English | 1280 x 720 | MPEG-4 ~2059 kbps | 23.976 fps
MP3 ~128 Kbps | 44.1 KHz | 1 channel | 1h 07mn | 1.04 GB

Genre: eLearning Video / Dating, Relationships, Sex, Psychology

This is the full video of my talk at the 21 Convention in Melbourne. I had a lot of fun meeting some wonderful people, including the organiser, Anthony Johnson, and the MC, Steve Mayeda, as well as many others. A big "Thank You" to Anthony, Steve, and the team for their gracious invitation! This is the outline I gave out as a hand-out. It should come in handy as you watch the video.

Demolish Your Deepest Insecurities Using Honesty: Top Dating Coach David Tian at the 21 Convention


1. Inner

Psychological Archaeology

* Use R&R (Reflection and Reframing) to overcome Limiting Beliefs (LB)

* LB => True or False

* If False, then Reflect, Research, and Condition

* If True, then can you change it? Yes or No?

* If Yes, change it!

* If No, then Reframe, Research, and Condition

2. Outer


Being Attractive = Emotional Strength + Honest

-Cyclical Process of a) becoming strong and b) expressing yourself honestly

-Former accomplished through repeated attempts at the latter

"Being yourself " requires that you first "know yourself "

Honesty is necessary for.

a) Coming to terms with all your current weaknesses

b) Discovering and deciding who you really want to be

-You feel inside when something's off

-Genuine "Game"

Know Thyself => What emotions are you feeling and why?

-Be comfortable and content with your flaws

-Admit to yourself and others

Emotion = Judgement/Thought/Belief/Interpretation + Phenomenology



Complete name : C:\Users\ParRus\Downloads\David Tian _ How to Demolish Your Deepest Insecurities-G_P\test\David Tian _ How to Demolish Your Deepest Insecurities\David Tian _ How to Demolish Your Deepest Insecurities_(new).avi
Format : AVI
Format/Info : Audio Video Interleave
Format profile : OpenDML
File size : 1.04 GiB
Duration : 1h 7mn
Overall bit rate : 2 203 Kbps
Writing application : Lavf54.29.104

ID : 0
Format : MPEG-4 Visual
Format profile : [email protected]
Format settings, BVOP : No
Format settings, QPel : No
Format settings, GMC : No warppoints
Format settings, Matrix : Default (H.263)
Codec ID : FMP4
Duration : 1h 7mn
Bit rate : 2 059 Kbps
Width : 1 280 pixels
Height : 720 pixels
Display aspect ratio : 16:9
Frame rate : 23.976 fps
Color space : YUV
Chroma subsampling : 4:2:0
Bit depth : 8 bits
Scan type : Progressive
Compression mode : Lossy
Bits/(Pixel*Frame) : 0.093
Stream size : 999 MiB (93%)
Writing library : Lavc54.59.100

ID : 1
Format : MPEG Audio
Format version : Version 1
Format profile : Layer 3
Codec ID : 55
Codec ID/Hint : MP3
Duration : 1h 7mn
Bit rate mode : Constant
Bit rate : 128 Kbps
Channel(s) : 1 channel
Sampling rate : 44.1 KHz
Compression mode : Lossy
Stream size : 62.1 MiB (6%)
Alignment : Aligned on interleaves
Interleave, duration : 26 ms (0.63 video frame)
Writing library : LAME3.99.3
Download link:

Buy Premium To Support Me & Get Resumable Support & Max Speed:





Links are Interchangeable - No Password - Single Extraction
Direct Download

Tags: Demolish, Deepest, Insecurities, Honesty

David Tian - How to Demolish Your Deepest Insecurities Using Honesty (2016) Fast Download via Rapidshare Hotfile Fileserve Filesonic Megaupload, David Tian - How to Demolish Your Deepest Insecurities Using Honesty (2016) Torrents and Emule Download or anything related.
Dear visitor, you went to website as unregistered user.
We encourage you to Register or Login to website under your name.

Add comments

Enter Code: *