Information of news
 (Votes #: 0)

Warren Bernhardt - You Can Play Jazz Piano: Vol. 1-3

Category: Tutorial

Download Now

Warren Bernhardt - You Can Play Jazz Piano: Vol. 1-3

Warren Bernhardt - You Can Play Jazz Piano: Vol. 1-3
3xDVDRip | English | AVI + PDF booklets | 720 x 480 | XviD ~1200 kbps | 29.970 fps
MP3 128 Kbps 48.0 KHz | 2 channels | 04:17:31 | 2.26 GB
Genre: eLearning Video / Piano, Jazz

Enter the rich and exciting world of jazz harmony. This fascinating piano lesson from one of the greats in contemporary jazz is packed with musical insights, invaluable advice and detailed keyboard technique for players who are starting out in this idiom. All you need is a basic knowledge of the keyboard, and before long you'll be comping evocative jazz chords and creating lush improvisations.

VOL 1
One of America's great contemporary players takes you on a journey of discovery and insight into the world of jazz piano that will start you playing the right way. In a 90-minute lesson packed with information, music theory and keyboard technique, players getting their start in the jazz idiom will gain a wealth of knowledge and acquire the tools you'll need to improvise jazz standards.
Warren Bernhardt's clear, easy-to-follow method builds your keyboard skills step-by-step, starting with the most basic of concepts: proper hand positions, ascending and descending diatonic scales in 3rds, and an understanding of chord shapes, inversions and important chord progressions.
This is a course that will develop your ear as well as your fingers. As you work your way through Warren's exercises and songs, you'll learn to understand melodic improvisation, use tri-tones and blues scales, develop melodic ornamentation and gain many other important musical skills. By the time you have completed this first lesson in the series, you'll be improvising Autumn Leaves and other famous jazz tunes.

VOL 2
Enter the rich and exciting world of jazz harmony. This fascinating piano lesson from one of the greats in contemporary jazz is packed with musical insights, invaluable advice and detailed keyboard technique for players who are starting out in this idiom. All you need is a basic knowledge of the keyboard, and before long you'll be comping evocative jazz chords and creating lush improvisations.
Warren Bernhardt imparts a wealth of ideas, giving you the tools to be more creative and a deep knowledge of what keyboard harmony is all about. His comprehensive explanation of scales, intervals and chord theory will add color and depth to anything you play.
Once you have an understanding of harmonic structure, including the various voicings for 6th, dominant 7th, major 7th, 9th, 11th, 13th, suspended 4th and other important chord forms, Warren takes you through the progressions that are the backbone of many jazz tunes. This lesson will provide hours of satisfying study and will open innumerable musical doors for you.

VOL 3
For his third lesson in the series, jazz pianist Warren Bernhardt teams up with guitarist Mike DeMicco for a powerful session that will teach you new and dynamic musical ideas. This lesson is designed for players who have gotten past the basics in the jazz idiom and have an understanding of the underlying principles of keyboard technique. The wealth of ideas that Warren conveys will give you the tools to be more creative with your music, expand your repertoire and discover what jazz soloing is all about.
Warren teaches you four original jazz etudes, each illustrating different aspects of musical development. These culminate in his breakdown of three wonderful performance pieces: Mike DeMicco's "Pali Lookout," Mike Manieri's "Sara's Touch" and Warren's own "B-Loose Blues."
After demonstrating the basic form of each tune, Warren shows you how to start soloing using specific scales, rhythmic feels and chord structures. You'll see Warren and Mike arrange and perform each tune, and the scales you'll need for soloing and improvisation.
Aside from detailed musical instruction, Warren gives you invaluable advice on how to prepare a song for performance, play with other musicians and other essentials for becoming a complete jazz musician.

VOL 2 & VOL 3 with booklets
Run time: ~69 + 66 + 63 min


MediaInfo:

General
Complete name : You Can Play Jazz Piano 2 - Basic Keyboard Harmony.avi
Format : AVI
Format/Info : Audio Video Interleave
File size : 819 MiB
Duration : 1h 25mn
Overall bit rate : 1 342 Kbps

Video
ID : 0
Format : MPEG-4 Visual
Format profile : [email protected]
Format settings, BVOP : No
Format settings, QPel : No
Format settings, GMC : No warppoints
Format settings, Matrix : Default (H.263)
Codec ID : XVID
Codec ID/Hint : XviD
Duration : 1h 25mn
Bit rate : 1 200 Kbps
Width : 720 pixels
Height : 480 pixels
Display aspect ratio : 3:2
Frame rate : 29.970 fps
Standard : NTSC
Color space : YUV
Chroma subsampling : 4:2:0
Bit depth : 8 bits
Scan type : Progressive
Compression mode : Lossy
Bits/(Pixel*Frame) : 0.116
Stream size : 733 MiB (89%)
Writing library : XviD 1.1.0 Beta2 (UTC 2005-04-04)

Audio
ID : 1
Format : MPEG Audio
Format version : Version 1
Format profile : Layer 3
Mode : Joint stereo
Mode extension : MS Stereo
Codec ID : 55
Codec ID/Hint : MP3
Duration : 1h 25mn
Bit rate mode : Constant
Bit rate : 128 Kbps
Channel(s) : 2 channels
Sampling rate : 48.0 KHz
Compression mode : Lossy
Stream size : 78.1 MiB (10%)
Alignment : Aligned on interleaves
Interleave, duration : 24 ms (0.72 video frame)

Screenshots

Warren Bernhardt - You Can Play Jazz Piano: Vol. 1-3
Warren Bernhardt - You Can Play Jazz Piano: Vol. 1-3
Warren Bernhardt - You Can Play Jazz Piano: Vol. 1-3

Buy Premium Account To Get Resumable Support & Max Speed

DOWNLOAD LINK


Links are Interchangeable - Single Extraction - Premium is support resumable
Direct Download


Tags: Warren, Bernhardt


Warren Bernhardt - You Can Play Jazz Piano: Vol. 1-3 Fast Download via Rapidshare Hotfile Fileserve Filesonic Megaupload, Warren Bernhardt - You Can Play Jazz Piano: Vol. 1-3 Torrents and Emule Download or anything related.
Dear visitor, you went to website as unregistered user.
We encourage you to Register or Login to website under your name.

Add comments

Name:*
E-Mail:*
Comments:
Enter Code: *