Information of news
 (Votes #: 0)

Eben Pagan - Ignition

Category: Tutorial

Download Now

Eben Pagan - Ignition

Eben Pagan - Ignition
WEBRip | English | MP4 + PDF Guides | 320 x 240 | AVC ~41.2 kbps | 15 fps
AAC | 128 Kbps | 44.1 KHz | 1 channel | ~50 hours | 3.87 GB
Genre: eLearning Video / Small Business, Entrepreneurs

Ignition by Eben Pagan is the most complete business course for people who seriously want to start their business online. You'll learn different new strategies that are currently making money on the internet! but more importantly Ignition teaches you EVERYTHING and EXACTLY what you need to know to get a runing start online.

If you want to learn about the BASICS of earning money online, then Ignition is the course for you. Most of the other courses assume that you already have a certain (technical) knowledge, but Ignition doesn't. It's 'the only' course that teaches you from scratch, how to make it BIG on the internet.

Eben Pagan has already proved himself by making excellent quality programs like Altitude, Guru Mastermind and Wake Up Productive. All the while building several business that each generate millions of dollars online!

Content :

- Ignition 1 Orientation (3 MP4s Video)
- Ignition 2 Weekend Seminar (16 MP4s Video + 14 PDFs)
- Ignition 3 Nuts and Bolts (15 MP4s Video)
- Ignition 4 Internet Marketing101 (6 MP4s Video)

also You can watch my other last: MediaInfo: General
Complete name : 090421_ign_orient1.mp4
Format
: MPEG-4
Format profile : Base Media / Version 2
Codec ID
: mp42
File size
: 109 MiB
Duration
: 1h 27mn
Overall bit rate : 174 Kbps
Encoded date : UTC 2009-04-23 23:22:24
Tagged date
: UTC 2009-04-23 23:23:52

Video
ID : 2
Format
: AVC
Format/Info
: Advanced Video Codec
Format profile : [email protected]
Format settings, CABAC : No
Format settings, ReFrames : 2 frames
Codec ID
: avc1
Codec ID/Info : Advanced Video Coding
Duration
: 1h 27mn
Bit rate
: 41.2 Kbps
Width
: 320 pixels
Height
: 240 pixels
Display aspect ratio : 4:3
Frame rate mode : Constant
Frame rate
: 15.000 fps
Color space
: YUV
Chroma subsampling

: 4:2:0
Bit depth
: 8 bits
Scan type
: Progressive
Bits/(Pixel*Frame)

: 0.036
Stream size
: 25.9 MiB (24%)
Language
: English
Encoded date : UTC 2009-04-23 22:52:37
Tagged date
: UTC 2009-04-23 23:23:52
Color primaries : BT.601-6 525, BT.1358 525, BT.1700 NTSC, SMPTE 170M
Transfer characteristics : BT.709-5, BT.1361
Matrix coefficients

: BT.601-6 525, BT.1358 525, BT.1700 NTSC, SMPTE 170M

Audio
ID : 1
Format
: AAC
Format/Info
: Advanced Audio Codec
Format profile : LC
Codec ID
: 40
Duration
: 1h 27mn
Source duration : 1h 27mn
Bit rate mode : Constant
Bit rate
: 128 Kbps
Channel(s)
: 1 channel
Channel positions: Front: C
Sampling rate : 44.1 KHz
Compression mode : Lossy
Stream size
: 81.6 MiB (75%)
Source stream size

: 81.6 MiB (75%)
Language
: English
Encoded date : UTC 2009-04-23 22:52:37
Tagged date
: UTC 2009-04-23 23:23:52

Screenshots

Eben Pagan - Ignition
Eben Pagan - Ignition
Eben Pagan - Ignition
Eben Pagan - Ignition


DOWNLOAD LINKS:
Buy Premium To Support Me & Get Resumable Support & Max Speed


Links are Interchangeable - No Password - Single Extraction
Direct Download


Tags: Ignition


Eben Pagan - Ignition Fast Download via Rapidshare Hotfile Fileserve Filesonic Megaupload, Eben Pagan - Ignition Torrents and Emule Download or anything related.
Dear visitor, you went to website as unregistered user.
We encourage you to Register or Login to website under your name.

Add comments

Name:*
E-Mail:*
Comments:
Enter Code: *