Information of news
 (Votes #: 0)

Professionalphototips - Effortless Exposure Blending

Category: Tutorial

Download Now

Professionalphototips - Effortless Exposure Blending

Professionalphototips - Effortless Exposure Blending
Incredible Techniques for Blending Multiple Exposures

WEBRip | English | MP4 + Project files | 1920 x 1080 | AVC ~1005 kbps | 30 fps
AAC ~162 Kbps | 48.0 KHz | 2 channels | ~1 hour | 861 MB
Genre: eLearning Video / Photographing

Despite recent advances in digital camera technology it is still commonplace to encounter scenes which present more dynamic range than the camera can capture. And while graduated ND filters can help balance exposure in simple scenes they can often be problematic in complex scenes or even ineffective in scenes with extreme dynamic range. In these situations it becomes necessary to rely on digital techniques to combine multiple exposures for maximum control over dynamic range. In this tutorial you will learn techniques for effortless exposure blending in Photoshop to create seamless blends for virtually any scene.
Blend Multiple Photos Seamlessly:
Improve and increase dynamic range in your photos
Quick and easy techniques for simple blends
How to blend specific bright elements like sunbursts
Smart techniques for matching tone and color for perfect blends
Advanced techniques for easy blending of complex images
Blend highlight detail around tree branches, ridge lines, and irregular shapes
Time-saving keyboard shortcuts
And much more

6 individual chapters, each short and packed with information covering:
Basic exposure blending using layers, masks, gradients, and brushes.
Blending in specific elements like sunbursts and dealing with objects that move from exposure to exposure.
Making complex blends easily using Luminosity Masks / Alpha Channels. Learn to blend around irregular shapes and complex elements, like trees that break the horizon. Seamless highlight recovery and tone matching techniques.
Making complex blends easily using Apply Image. Learn to blend around irregular shapes and complex elements, like trees that break the horizon. Seamless highlight recovery and tone matching techniques.
Blending in complex shadow detail effortlessly.
Blending three images together for extreme dynamic range control and highlight recovery.
Over 1 hour of in-depth video content for intermediate / advanced users
Hi-res photos for you to edit along with the videos
MediaInfo: General
Complete name : 4 - Complex Blends Made Easy - Apply Image.mp4
Format : MPEG-4
Format profile : Base Media / Version 2
Codec ID : mp42 (isom/iso2/avc1/mp41)
File size : 92.3 MiB
Duration : 9mn 13s
Overall bit rate mode : Variable
Overall bit rate : 1 398 Kbps
Writing application : HandBrake 0.10.1 2015030800

Video
ID : 1
Format : AVC
Format/Info : Advanced Video Codec
Format profile : [email protected]
Format settings, CABAC : Yes
Format settings, ReFrames : 4 frames
Codec ID : avc1
Codec ID/Info : Advanced Video Coding
Duration : 9mn 13s
Bit rate : 1 005 Kbps
Width : 1 920 pixels
Height : 1 080 pixels
Display aspect ratio : 16:9
Frame rate mode : Constant
Frame rate : 30.000 fps
Color space : YUV
Chroma subsampling : 4:2:0
Bit depth : 8 bits
Scan type : Progressive
Bits/(Pixel*Frame) : 0.016
Stream size : 66.3 MiB (72%)
Writing library : x264 core 142 r2479 dd79a61
Encoding settings : cabac=1 / ref=3 / deblock=1:0:0 / analyse=0x3:0x113 / me=hex / subme=7 / psy=1 / psy_rd=1.00:0.00 / mixed_ref=1 / me_range=16 / chroma_me=1 / trellis=1 / 8x8dct=1 / cqm=0 / deadzone=21,11 / fast_pskip=1 / chroma_qp_offset=-2 / threads=12 / lookahead_threads=2 / sliced_threads=0 / nr=0 / decimate=1 / interlaced=0 / bluray_compat=0 / constrained_intra=0 / bframes=3 / b_pyramid=2 / b_adapt=1 / b_bias=0 / direct=1 / weightb=1 / open_gop=0 / weightp=2 / keyint=300 / keyint_min=30 / scenecut=40 / intra_refresh=0 / rc_lookahead=40 / rc=crf / mbtree=1 / crf=17.0 / qcomp=0.60 / qpmin=0 / qpmax=69 / qpstep=4 / vbv_maxrate=62500 / vbv_bufsize=78125 / crf_max=0.0 / nal_hrd=none / filler=0 / ip_ratio=1.40 / aq=1:1.00
Color range : Limited
Color primaries : BT.709
Transfer characteristics : BT.709
Matrix coefficients : BT.709

Audio #1
ID : 2
Format : AAC
Format/Info : Advanced Audio Codec
Format profile : LC
Codec ID : 40
Duration : 9mn 13s
Bit rate mode : Variable
Bit rate : 162 Kbps
Channel(s) : 2 channels
Channel positions : Front: L R
Sampling rate : 48.0 KHz
Frame rate : 46.875 fps (1024 spf)
Compression mode : Lossy
Stream size : 10.7 MiB (12%)
Title : Stereo / Stereo
Language : English
Default : Yes
Alternate group : 1

Audio #2
ID : 3
Format : AC-3
Format/Info : Audio Coding 3
Mode extension : CM (complete main)
Format settings, Endianness : Big
Codec ID : ac-3
Duration : 9mn 13s
Bit rate mode : Constant
Bit rate : 224 Kbps
Channel(s) : 2 channels
Channel positions : Front: L R
Sampling rate : 48.0 KHz
Frame rate : 31.250 fps (1536 spf)
Bit depth : 16 bits
Compression mode : Lossy
Stream size : 14.8 MiB (16%)
Title : Stereo / Stereo
Language : English
Default : No
Alternate group : 1

Screenshots
Professionalphototips - Effortless Exposure Blending

Professionalphototips - Effortless Exposure Blending

Professionalphototips - Effortless Exposure Blending



Buy Premium Account To Get Resumable Support & Max Speed

DOWNLOAD LINK


Links are Interchangeable - Single Extraction - Premium is support resumable
Direct Download


Tags: Professionalpho, Effortless, Exposure, Blending


Professionalphototips - Effortless Exposure Blending Fast Download via Rapidshare Hotfile Fileserve Filesonic Megaupload, Professionalphototips - Effortless Exposure Blending Torrents and Emule Download or anything related.
Dear visitor, you went to website as unregistered user.
We encourage you to Register or Login to website under your name.

Add comments

Name:*
E-Mail:*
Comments:
Enter Code: *