Information of news
 (Votes #: 0)

Photoshop CS6 Image Optimization Workshop

Category: Tutorial

Download Now

Photoshop CS6 Image Optimization Workshop

Photoshop CS6 Image Optimization Workshop
WEBRip | English | MP4 + Project files | 1280 x 720 | AVC ~748 kbps | 15 fps
AAC ~128 Kbps | 44.1 KHz | 2 channels | 2h 20mn | 700.1 MB
Genre: eLearning Video / Photographing, Adobe Photoshop

The core strength of Photoshop is the way it enables you to improve the quality of your images, whether you're fixing a major problem or making a subtle adjustment. In this workshop Tim Grey explores a wide variety of techniques to help you get the best results when optimizing your images.
He begins with basics like cropping, changing brightness and contrast, and correcting color balance, then moves on to more advanced adjustments like Shadows/Highlights, Curves, and dodging and burning. You'll learn how to make targeted adjustments that affect only selected parts of the image and apply creative adjustments that don't so much fix a problem as add a unique touch. And best of all, Tim teaches all these techniques as part of an overall workflow designed to help you work quickly, efficiently, and nondestructively.

Includes:

Getting Started
33:31

Configuring the Photoshop Interface
04:55

Opening an Existing Image
02:25

Basic RAW Conversion
09:50

Introduction to Adjustment Layers
03:12

Reviewing Adjustments
05:13

A Basic Adjustment Workflow
02:05

Saving the Master Image
05:51

Basic Adjustments
36:50

Cropping the Image
06:32

Improving Tonality with Brightness/Contrast
02:42

Refining Tonality with Levels
06:14

Correcting Color with Color Balance
05:18

Boosting Colors with Vibrance
04:02

Refining Colors with Hue/Saturation
07:45

Adding a Tint with the Photo Filter
04:17

Advanced Adjustments
44:12

Using the Shadows/Highlights Adjustment
06:42

Dodging and Burning
08:45

Introduction to Curves
08:18

Tonal Adjustments with Curves
08:10

Color Adjustments with Curves
03:59

Basic Targeted Adjustments
04:29

Making a Targeted Adjustment from a Selection
03:49

Creative Adjustments
26:16

Creating a Black-and-White Interpretation of a Color Photo
03:44

Adding a Tint to a Black-and-White Image
02:54

Using a Gradient Map
07:23

Adding a Vignette
03:49

Adding an HDR Toning Effect
06:04

Getting Creative with Curves
02:22 General
Complete name : 04_05-v2b-PCS6ImgOptim.mp4
Format : MPEG-4
Format profile : Base Media
Codec ID : isom (isom/iso2/avc1/mp41)
File size : 38.2 MiB
Duration : 6mn 4s
Overall bit rate : 881 Kbps
Encoded date : UTC 1970-01-01 00:00:00
Tagged date : UTC 1970-01-01 00:00:00
Writing application : Lavf53.12.0

Video
ID : 1
Format : AVC
Format/Info : Advanced Video Codec
Format profile : [email protected]
Format settings, CABAC : Yes
Format settings, ReFrames : 4 frames
Format settings, GOP : M=4, N=29
Codec ID : avc1
Codec ID/Info : Advanced Video Coding
Duration : 6mn 4s
Bit rate : 748 Kbps
Width : 1 280 pixels
Height : 720 pixels
Display aspect ratio : 16:9
Frame rate mode : Constant
Frame rate : 15.000 fps
Color space : YUV
Chroma subsampling : 4:2:0
Bit depth : 8 bits
Scan type : Progressive
Bits/(Pixel*Frame) : 0.054
Stream size : 32.5 MiB (85%)
Writing library : x264 core 116 r2074 2641b9e
Encoding settings : cabac=1 / ref=3 / deblock=1:0:0 / analyse=0x3:0x113 / me=hex / subme=7 / psy=1 / psy_rd=1.00:0.00 / mixed_ref=1 / me_range=16 / chroma_me=1 / trellis=1 / 8x8dct=1 / cqm=0 / deadzone=21,11 / fast_pskip=1 / chroma_qp_offset=-2 / threads=12 / sliced_threads=0 / nr=0 / decimate=1 / interlaced=0 / bluray_compat=0 / constrained_intra=0 / bframes=3 / b_pyramid=2 / b_adapt=1 / b_bias=0 / direct=1 / weightb=1 / open_gop=0 / weightp=2 / keyint=30 / keyint_min=3 / scenecut=40 / intra_refresh=0 / rc_lookahead=30 / rc=crf / mbtree=1 / crf=23.0 / qcomp=0.60 / qpmin=0 / qpmax=69 / qpstep=4 / ip_ratio=1.40 / aq=1:1.00
Encoded date : UTC 1970-01-01 00:00:00
Tagged date : UTC 1970-01-01 00:00:00

Audio
ID : 2
Format : AAC
Format/Info : Advanced Audio Codec
Format profile : LC
Codec ID : 40
Duration : 6mn 4s
Bit rate mode : Constant
Bit rate : 128 Kbps
Channel(s) : 2 channels
Channel(s)_Original : 1 channel
Channel positions : Front: C
Sampling rate : 44.1 KHz
Frame rate : 43.066 fps (1024 spf)
Compression mode : Lossy
Stream size : 5.56 MiB (15%)
Encoded date : UTC 1970-01-01 00:00:00
Tagged date : UTC 1970-01-01 00:00:00

Screenshots
Photoshop CS6 Image Optimization Workshop

Photoshop CS6 Image Optimization Workshop

Photoshop CS6 Image Optimization Workshop

Photoshop CS6 Image Optimization Workshop

Photoshop CS6 Image Optimization Workshop


Buy Premium Account To Get Resumable Support & Max Speed

DOWNLOAD LINK


Links are Interchangeable - Single Extraction - Premium is support resumable
Direct Download


Tags: Photoshop, Optimization, Workshop


Photoshop CS6 Image Optimization Workshop Fast Download via Rapidshare Hotfile Fileserve Filesonic Megaupload, Photoshop CS6 Image Optimization Workshop Torrents and Emule Download or anything related.
Dear visitor, you went to website as unregistered user.
We encourage you to Register or Login to website under your name.

Add comments

Name:*
E-Mail:*
Comments:
Enter Code: *