Information of news
 (Votes #: 0)

TrueFire - 50 Radio Rock Licks You MUST Know with Angus Clark's [repost]

Category: Tutorial

Download Now

TrueFire - 50 Radio Rock Licks You MUST Know with Angus Clark's [repost]
TrueFire - 50 Radio Rock Licks You MUST Know
(.MP4) in an interactive shell | English | PDF tabs + MP3 jam tracks | 864 x 486 | AVC ~976 kbps | 29.970 fps
AAC 128 Kbps 44.1 KHz | 2 channels | 244 minutes | 1.8 GB
Genre: eLearning Video / Guitar lesson

You're feeling mighty fine as you head home after dropping your sweetie off on the doorstep, her kiss still fresh on your lips. The top is down, hair blowing all in your face, big smile on your mug and the radio is blasting your favorite tune. Like the rest of us, you struggle singing along to some of the lyrics (for the record, it's "blinded by the light, revved up like a deuce, another runner in the night") but no problem scatting those killer guitar solos note-for-note. That's radio rock guitar baby - tasty, melodic, memorable solos guaranteed to trigger involuntary air-guitar convulsions.
Top NYC recording and performing artist, Angus Clark is your radio rock jock for this collection of 50 Radio Rock Licks You MUST Know inspired by the likes of Jeff Beck, Kirk Hammett, Jimi Hendrix, Mike McReady, Tony Iommi, Ritchie Blackmore, Neal Schon, Steve Lukather, John Shanks, Trevor Rabin and David Gilmour. Not only is Angus one of the scene's go-to rock players, but he's also a passionate educator whose clinics and workshops always pull standing-room only audiences.

Angus covers a lot of ground in this collection of lickage. You'll learn how to build tasty rockin' lines with the major scale, how to apply pre-bends and releases in your solos for optimal impact, pull-offs, slides, arpeggiated phrases, mixed major and minor pentatonic lines, repeating motives, intervallic lines, double-stops and triads, "money-maker" licks, suspended chord arpeggios, repetition licks, Mixolydian lines, ostinato patterns, and even how to pull melodic ideas from classical music and old standards. In short, plenty to keep you happily busy in the shed for many moons.

Dive into this versatile toolbox of 50 Radio Rock Licks You MUST Know and other assorted tricks of the trade for maximum melodic impact in your solos and improvisations. Soon you'll be putting smiles on drivers' faces!
MediaInfo:  General
Complete name    : ac50rrl-05.mp4
Formatprofile   : Base Media / Version 2
Codec ID
   : mp42 (mp42/isom)
File size
  : 21.6 MiB
Duration
   : 2mn 43s
Overall bit rate : 1 107 Kbps
Encoded date     : UTC 2012-10-01 15:25:11
Tagged date
: UTC 2012-10-01 15:25:11

Video
ID : 2
Format
     : AVC
Format/Info
: Advanced Video Codec
Format profile   :
Format settings, CABAC                   : No
Format settings, ReFrames                : 5 frames
Format settings, GOP                     : M=1, N=24
Codec ID
   : avc1
Codec ID/Info    : Advanced Video Coding
Duration
   : 2mn 43s
Bit rate
   : 976 Kbps
Width
      : 864 pixels
Height
     : 486 pixels
Display aspect ratio                     : 16:9
Frame rate mode  : Constant
Frame rate
: 29.970 (30000/1001) fps
Standard
   : NTSC
Color space
: YUV
Chroma subsampling

: 4:2:0
Bit depth
  : 8 bits
    
[center][img]http://i78.fastpic.ru/big/2016/0419/9b/a05063618d399fa59dc9519a9aaf3e9b.jpg[/img]
[/center]

Scan type
  : Progressive
Bits/(Pixel*Frame)

: 0.078
Stream size
: 19.0 MiB (88%)
Language
   : English
Encoded date     : UTC 2012-10-01 15:25:11
Tagged date
: UTC 2012-10-01 15:25:11
Color range
: Limited

Audio
ID : 1
Format
     : AAC
Format/Info
: Advanced Audio Codec
Format profile   : LC
Codec ID
   : 40
Duration
   : 2mn 43s
Bit rate mode    : Constant
Bit rate
   : 128 Kbps
Channel(s)
: 2 channels
Channel positions: Front: L R
Sampling rate    : 44.1 KHz
Frame rate
: 43.066 fps (1024 spf)
Compression mode : Lossy
Stream size
: 2.50 MiB (12%)
Language
   : English
Encoded date     : UTC 2012-10-01 15:25:11
Tagged date
: UTC 2012-10-01 15:25:11    

Screenshots

TrueFire - 50 Radio Rock Licks You MUST Know with Angus Clark's [repost]
TrueFire - 50 Radio Rock Licks You MUST Know with Angus Clark's [repost]
TrueFire - 50 Radio Rock Licks You MUST Know with Angus Clark's [repost]
TrueFire - 50 Radio Rock Licks You MUST Know with Angus Clark's [repost]

DOWNLOAD LINKS:
Buy Premium To Support Me & Get Resumable Support & Max Speed


Links are Interchangeable - No Password - Single Extraction
Direct Download


Tags: TrueFire, repost


TrueFire - 50 Radio Rock Licks You MUST Know with Angus Clark's [repost] Fast Download via Rapidshare Hotfile Fileserve Filesonic Megaupload, TrueFire - 50 Radio Rock Licks You MUST Know with Angus Clark's [repost] Torrents and Emule Download or anything related.
Dear visitor, you went to website as unregistered user.
We encourage you to Register or Login to website under your name.

Add comments

Name:*
E-Mail:*
Comments:
Enter Code: *