Information of news
 (Votes #: 0)

Living Web Farms - The Market Gardener with Jean-Martin Fortier, Six Figure Farming (2016) [10 Webrips (MP4)]

Category: Tutorial

Download Now

Living Web Farms - The Market Gardener with Jean-Martin Fortier, Six Figure Farming (2016) [10 Webrips (MP4)]

Living Web Farms - The Market Gardener with Jean-Martin Fortier, Six Figure Farming (2016) [10 Webrips (MP4)]
English | Size: 663.85 MB (696,096,776 bytes)
Category: Gardening / Agriculture

Innovative organic farmer Jean-Martin Fortier, author of "The Market Gardener" shares his profitable methods for achieving success growing vegetables on a small Description of land. Learn from the years of experience Jean-Martin and his wife have gone through from the basic beginnings to the advances made over a decade farming their land. Gain the benefits of highly efficient techniques that will jumpstart your small farm/garden operation. The book, "The Market Gardener" elucidates all the important details; startup costs, crop rotations and other vital data needed to emulate Jean-Martin Fortier's cutting edge business model. He brings a level of professionalism, discipline and hope to aspiring farmers and seasoned growers alike.

Comment: This is an excellent series of videos. Fortier provides a lot of first-hand detailed explanation on how to grow vegetables using brains rather than brawn.

The following is representative of all 10 files in the folder.

General
Complete name : Part 1 Introduction-1.mp4
Format

: MPEG-4
Format profile : Base Media / Version 2
Codec ID : mp42 (mp42/isom/avc1)
File size : 113 MiB
Duration : 24mn 0s
Overall bit rate mode : Variable
Overall bit rate : 661 Kbps
Encoded date : UTC 2016-03-16 22:58:11
Tagged date : UTC 2016-03-16 23:05:39
Writing application : HandBrake 0.9.9 2013052900

Video
ID : 1
Format

: AVC
Format/Info : Advanced Video Codec
Format profile : [email protected]
Format settings, CABAC : Yes
Format settings, Reframes : 4 frames
Codec ID : avc1
Codec ID/Info : Advanced Video Coding
Duration : 24mn 0s
Bit rate : 499 Kbps
Width

: 640 pixels
Height

: 360 pixels
Display aspect ratio : 16:9
frame rate mode : Constant
frame rate : 29.970 (30000/1001) fps
Color space : YUV
Chroma subsampling : 4:2:0
Bit depth : 8 bits
Scan type : Progressive
Bits/(Pixel*frame) : 0.072
Stream size : 85.7 MiB (76%)
Writing library : x264 core 130 r2273 b3065e6
Encoded date : UTC 2016-03-16 22:58:11
Tagged date : UTC 2016-03-16 23:05:39
Color range : Limited
Color primaries : BT.709
Transfer characteristics : BT.709
Matrix coefficients : BT.709

Audio
ID : 2
Format

: AAC
Format/Info : Advanced Audio Codec
Format profile : LC
Codec ID : 40
Duration : 24mn 0s
Bit rate mode : Variable
Bit rate : 157 Kbps
Maximum bit rate : 219 Kbps
Channel(s) : 2 channels
Channel positions : Front: L R
Sampling rate : 44.1 KHz
frame rate : 43.066 fps (1024 spf)
Compression mode : Lossy
Stream size : 27.0 MiB (24%)
Title

: Stereo
Encoded date : UTC 2016-03-16 22:58:11




DOWNLOAD LINKS:
Buy Premium To Support Me & Get Resumable Support & Max Speed


Links are Interchangeable - No Password - Single Extraction
Direct Download


Tags: Living, Market, Gardener, Martin, Fortier, Figure, Farming, Webrips


Living Web Farms - The Market Gardener with Jean-Martin Fortier, Six Figure Farming (2016) [10 Webrips (MP4)] Fast Download via Rapidshare Hotfile Fileserve Filesonic Megaupload, Living Web Farms - The Market Gardener with Jean-Martin Fortier, Six Figure Farming (2016) [10 Webrips (MP4)] Torrents and Emule Download or anything related.
Dear visitor, you went to website as unregistered user.
We encourage you to Register or Login to website under your name.

Add comments

Name:*
E-Mail:*
Comments:
Enter Code: *