Information of news
 (Votes #: 0)

Social Ad Classroom - Dan DaSilva & Justin Cener (2016)

Category: Tutorial

Download Now

Social Ad Classroom - Dan DaSilva & Justin Cener (2016)

Social Ad Classroom - Dan DaSilva & Justin Cener (2016)
WEBRip | English | MP4 | 1920 x 1080 | AVC ~363 kbps | 25 fps
AAC | 256 Kbps | 48.0 KHz | 2 channels | ~6 hours | 2.05 GB
Genre: eLearning Video / Business, Net: E-Commerce

How Would You Like The Facebook Ad strategies That Propelled Me From ​$0 to $1.1 Million Per Month With No Technical Skills And Zero ‘Know How'..
4 Crucial Reasons Social Ad Classroom Is The Easiest Way To Always Turn A Profit From Facebook™ Ads:

Specific Yet Easy To Follow Ad roadmaps for each of your goals
Want more product sales? More opt­-ins? Both at the same time? You'll access a step­-by­-step method for every type of ad you'll ever want to create.

Ever­growing training -NOT one off
Let's face it, the best practices for social media advertising change a LOT.Social Ad Classroom will keep you on top of the game and ahead of the curve

Most Active Mastermind Community
Imagine getting the best support for every single question you have. It will be much easier to succeed with access to best social ad marketers 24/7 & that is exactly what you will get inside Social Ad Classroom Mastermind.

Complete Done For You Ad Software Suite
Crafting high converting ads is not easy as it seems. Our software suite gives you high converting ads at your fingertips, allowing you to be light years ahead of your competition.

Now You Can Harness Facebook™ And Other Social Media Advertising Platforms ON DEMAND To Exponentially Grow Your Business In Any Way You Want.

Now, full disclosure​... It takes months of effort...

Trial and error...

Courage and fearlessness...

To test out new things, venture into uncharted territories...

To find the winning formulas that we use and that you'll simply plug in and profit with on command...

But we do it - and we will continue to do it HAPPILY - because it's our business. It's what we have developed. The ‘perfect' system.

Finding the most current ways to profit big from social ads makes us a LOT of money.

And you need ​a team who makes your social media ads successful for your business.​ Their 24/7 job.

So you can do what you have to, and what you want to, to grow your business.

That's what you're getting in Social Ad Classroom.

The exact fruits of all the 24/7 labor of the most elite social media minds of our day.

Laid out in step­ by­ step fashion for you to implement.

So you can use them to make a lot of money and achieve all of your goals.

Price: $497
More Info: [code]http://anonym.to?http://archive.is/qXGOQ]homepage


also You can watch my other last: [code]http://avxsearch.se/search?q=Business&a=ParRus&exact=0&c=all&l=&sort_by=date_desc]Business-posts

MediaInfo:


General
Complete name : Section 4 - 3 - Retargeting.mp4
Format : MPEG-4
Format profile : Base Media / Version 2
Codec ID : mp42 (mp42/mp41/isom/avc1)
File size : 105 MiB
Duration : 23mn 25s
Overall bit rate mode : Variable
Overall bit rate : 627 Kbps
Season : 0
Movie name : Section_4_-_3_-_Retargeting
Part : 0
Performer : [code]http://www.getwso.com]www.getwso.com
ContentType : Short Film
Description : [code]http://www.getwso.com]www.getwso.com
Encoded date : UTC 2016-03-10 22:48:58
Tagged date : UTC 2016-04-04 13:41:53
Comment : [code]http://www.getwso.com]www.getwso.com
LongDescription : [code]http://www.getwso.com]www.getwso.com
Keyword : [code]http://www.getwso.com]www.getwso.com
AppleStoreCatalogID : 0

Video
ID : 1
Format : AVC
Format/Info : Advanced Video Codec
Format profile : [email protected]
Format settings, CABAC : Yes
Format settings, ReFrames : 4 frames
Codec ID : avc1
Codec ID/Info : Advanced Video Coding
Duration : 23mn 25s
Bit rate : 363 Kbps
Width : 1 920 pixels
Height : 1 080 pixels
Display aspect ratio : 16:9
Frame rate mode : Constant
Frame rate : 25.000 fps
Color space : YUV
Chroma subsampling : 4:2:0
Bit depth : 8 bits
Scan type : Progressive
Bits/(Pixel*Frame) : 0.007
Stream size : 60.8 MiB (58%)
Writing library : x264 core 148 r11 a01e339
Encoding settings : cabac=1 / ref=4 / deblock=1:0:0 / analyse=0x3:0x113 / me=umh / subme=8 / psy=1 / psy_rd=1.00:0.00 / mixed_ref=1 / me_range=16 / chroma_me=1 / trellis=1 / 8x8dct=1 / cqm=0 / deadzone=21,11 / fast_pskip=1 / chroma_qp_offset=-2 / threads=34 / lookahead_threads=5 / sliced_threads=0 / nr=0 / decimate=1 / interlaced=0 / bluray_compat=0 / stitchable=1 / constrained_intra=0 / bframes=3 / b_pyramid=2 / b_adapt=2 / b_bias=0 / direct=3 / weightb=1 / open_gop=0 / weightp=2 / keyint=infinite / keyint_min=25 / scenecut=40 / intra_refresh=0 / rc_lookahead=50 / rc=crf / mbtree=1 / crf=20.0 / qcomp=0.60 / qpmin=5 / qpmax=69 / qpstep=4 / vbv_maxrate=4950 / vbv_bufsize=13500 / crf_max=0.0 / nal_hrd=none / filler=0 / ip_ratio=1.40 / aq=1:1.00
Encoded date : UTC 2016-03-10 22:48:58
Tagged date : UTC 2016-03-10 22:48:58
Color range : Limited
Color primaries : BT.709
Transfer characteristics : BT.709
Matrix coefficients : BT.709
Menus : 3

Audio
ID : 2
Format : AAC
Format/Info : Advanced Audio Codec
Format profile : LC
Codec ID : 40
Duration : 23mn 25s
Bit rate mode : Variable
Bit rate : 256 Kbps
Channel(s) : 2 channels
Channel positions : Front: L R
Sampling rate : 48.0 KHz
Frame rate : 46.875 fps (1024 spf)
Compression mode : Lossy
Stream size : 42.9 MiB (41%)
Encoded date : UTC 2016-03-10 22:48:58
Tagged date : UTC 2016-03-10 22:48:58

Menu
ID : 3
Codec ID : text
Duration : 23mn 25s
Encoded date : UTC 2016-04-04 13:41:53
Tagged date : UTC 2016-04-04 13:41:53
Menu For : 1
00:00:00.000 : Chapter 1

Screenshots

Social Ad Classroom - Dan DaSilva & Justin Cener (2016)


Social Ad Classroom - Dan DaSilva & Justin Cener (2016)


Social Ad Classroom - Dan DaSilva & Justin Cener (2016)


Social Ad Classroom - Dan DaSilva & Justin Cener (2016)


Social Ad Classroom - Dan DaSilva & Justin Cener (2016)


Social Ad Classroom - Dan DaSilva & Justin Cener (2016)

Exclusive eLearning Videos [code]http://avxhome.in/blogs/ParRus] ParRus-blogadd to bookmarks

Social Ad Classroom - Dan DaSilva & Justin Cener (2016)





Buy Premium Account To Get Resumable Support & Max Speed

DOWNLOAD LINK


Links are Interchangeable - Single Extraction - Premium is support resumable
Direct Download


Tags: Social, Classroom, DaSilva, Justin


Social Ad Classroom - Dan DaSilva & Justin Cener (2016) Fast Download via Rapidshare Hotfile Fileserve Filesonic Megaupload, Social Ad Classroom - Dan DaSilva & Justin Cener (2016) Torrents and Emule Download or anything related.
Dear visitor, you went to website as unregistered user.
We encourage you to Register or Login to website under your name.

Add comments

Name:*
E-Mail:*
Comments:
Enter Code: *