Information of news
 (Votes #: 0)

Ryan Stewart - White Hat Link Building

Category: Tutorial

Download Now

Ryan Stewart - White Hat Link Building

Ryan Stewart - White Hat Link Building
WEBRip | English | MP4 | 960 x 600 | AVC ~756 kbps | 23.976 fps
AAC | 72 Kbps | 44.1 KHz | 2 channels | ~7 hours | 1.81 GB
Genre: eLearning Video / Business, Net: Advertising, Web Traffic

"Another internet marketing product from another 'guru', right?" Wrong. I don't make a living selling info products. I make a living performing SEO for some of the world's leading brands. This training details the exact tactics and processes our agency uses every day to deliver white hat link building services at scale.
This training gives you the keys to go 100% white hat, do things the right way and open yourselves up to working with larger, corporate clients.

I pride myself on providing top notch content, for free. If you've followed my work you know first hand, I've never sold anything before.

How to build every white hat link imaginable
The process to do it at scale
How to build a low cost team that does it all for you
Oh, and it costs less than buying links. Let me show you how to never worry about links again.

White Hat Link Building 2

Internet marketers ruin everything. I'm only releasing a limited number of these trainings because I don't need the market flooded - after all, this information is proprietary to my agency's revenue, I can't do anything to jeopardize that. This training will only be available for the next 30 days . This series is a game changer - don't miss out.

What´s Inside:

Module 1
A VERY High Level Intro To Link Building, People Involved and the Process.

These videos are for people with little to no knowledge about link building. Internally, I use these videos to train brand new employees with no knowledge of SEO or link building. If you are an experienced SEO or link builder, these videos may no add much value. However, if you're a team leader or looking to train employees on the link building process, please make sure to watch these.

Module 2
How to Build and Hire and Link Building Team.

These videos are all about exactly how to build your team and where to find them. These videos are meant for the lead SEO or business owner ONLY.

Module 3
These videos are about setting up your campaign:

Using Google Drive
Overview and deep dive of our tracking system
Evaluating a website's content
Evaluating a website's link profile
Building out target pages and keywords using SEM Rush
Building a project plan

Module 4
This module will get you set up to perform outreach

How to set up a new Gmail address
Setting up Canned Responses (aka templated emails)
How to properly set up a Gmail account to maximize time spent in there

Module 5
This section is where we cover each link type in great detail.

Each link type has it's own mini module and process, broken down by role.
This is where 90% of the training really takes place. Everything up to this point was in preparation for these videos.

Module 6
This is a wrap up of everything we've talked about in the previous trainings. We will also be updating this section with videos for the most frequently asked questions here.

Price: $849 MediaInfo:


General
Complete name    : 3.0.1.1 - Setting Up the Workbook - Live Links Tab.mp4
Format
     : MPEG-4
Format profile   : Base Media
Codec ID
   : isom (isom/iso2/avc1/mp41)
File size
  : 10.6 MiB
Duration
   : 1mn 44s
Overall bit rate : 848 Kbps
Season
     : 0
Movie name
:
Part  
     : 0
Performer

ContentType
: Short Film
Description    
Tagged date
: UTC 2016-03-31 16:14:45
Writing application

: Lavf54.29.104
Comment
  
LongDescription
Keyword        
AppleStoreCatalogID

: 0

Video
ID  
       : 1
Format
     : AVC
Format/Info
: Advanced Video Codec
Format profile   :
Format settings, CABAC                   : Yes
Format settings, ReFrames                : 4 frames
Codec ID
   : avc1
Codec ID/Info    : Advanced Video Coding
Duration
   : 1mn 44s
Bit rate
   : 756 Kbps
Width
      : 960 pixels
Height
     : 600 pixels
Display aspect ratio                     : 16:10
Frame rate mode  : Constant
Frame rate
: 23.976 (23976/1000) fps
Color space
: YUV
Chroma subsampling

: 4:2:0
Bit depth
  : 8 bits
Scan type
  : Progressive
Bits/(Pixel*Frame)

: 0.055
Stream size
: 9.62 MiB (91%)
Writing library  : x264 core 129
Encoding settings: cabac=1 / ref=3 / deblock=1:0:0 / analyse=0x3:0x113 / me=hex / subme=7 / psy=1 / psy_rd=1.00:0.00 / mixed_ref=1 / me_range=16 / chroma_me=1 / trellis=1 / 8x8dct=1 / cqm=0 / deadzone=21,11 / fast_pskip=1 / chroma_qp_offset=-2 / threads=9 / lookahead_threads=1 / sliced_threads=0 / nr=0 / decimate=1 / interlaced=0 / bluray_compat=0 / constrained_intra=0 / bframes=3 / b_pyramid=2 / b_adapt=1 / b_bias=0 / direct=1 / weightb=1 / open_gop=0 / weightp=2 / keyint=250 / keyint_min=23 / scenecut=40 / intra_refresh=0 / rc_lookahead=40 / rc=abr / mbtree=1 / bitrate=756 / ratetol=1.0 / qcomp=0.60 / qpmin=0 / qpmax=69 / qpstep=4 / ip_ratio=1.40 / aq=1:1.00
Menus
      : 3

Audio
ID : 2
Format
     : AAC
Format/Info
: Advanced Audio Codec
Format profile   : LC
Codec ID
   : 40
Duration
   : 1mn 44s
Bit rate mode    : Constant
Bit rate
   : 72.0 Kbps
Channel(s)
: 2 channels
Channel positions: Front: L R
Sampling rate    : 44.1 KHz
Frame rate
: 43.066 fps (1024 spf)
Compression mode : Lossy
Stream size
: 920 KiB (8%)
Default
    : Yes
Alternate group  : 1

Menu
ID : 3
Codec ID
   : text
Duration
   : 1mn 44s
Encoded date     : UTC 2016-03-31 16:14:45
Tagged date
: UTC 2016-03-31 16:14:45
Menu For
   : 1
00:00:00.000     : Chapter 1


Screenshots

Ryan Stewart - White Hat Link Building

Ryan Stewart - White Hat Link Building
Ryan Stewart - White Hat Link Building

DOWNLOAD LINKS:
Buy Premium To Support Me & Get Resumable Support & Max Speed


Links are Interchangeable - No Password - Single Extraction
Direct Download


Tags: Stewart, Building


Ryan Stewart - White Hat Link Building Fast Download via Rapidshare Hotfile Fileserve Filesonic Megaupload, Ryan Stewart - White Hat Link Building Torrents and Emule Download or anything related.
Dear visitor, you went to website as unregistered user.
We encourage you to Register or Login to website under your name.

Add comments

Name:*
E-Mail:*
Comments:
Enter Code: *