Information of news
 (Votes #: 0)

Sur Les Pointes avec une Etoile - Isabelle Ciaravola, Andrey Klemm

Category: Tutorial

Download Now

Sur Les Pointes avec une Etoile - Isabelle Ciaravola, Andrey Klemm

Sur Les Pointes avec une Etoile - Isabelle Ciaravola, Andrey Klemm
DVDRip | French | AVI | 720 x 400 | H264 ~290 kbps | 25 fps
AC-3 128 Kbps 48.0 KHz | 2 channels | 01:10:59 | 217.3 MB
Genre: eLearning Video / Ballet, Classical Dance

Here is a private look at a star of the Paris Opera in a special pointe class taught by the ballet master, Andrey Klemm. Filmed in the dance studios of the Paris Opera, this complete ballet class gives the viewer an insight into the magnificent environment of this world famous opera house. The control and ability of avec une Etoile, Isabelle Ciaravola, is an inspiration to watch and Mr. Klemm actually gives her corrections to incorporate into the steps they are working on. It is a great experience to watch a true professional working on her technique.
This video is sure to inspire your students and is a treasure in any library. If only we could see Ms Ciaravola's legs at the barre but alas they are covered up so we are forced to watch her incredible feet in action. All of the music used in this pointe class can be found on the CD ‘Ballet Class Music' by Sylvain Durand

This DVD pair highlights the articulate pointe work of Paris Opera etoile Isabelle Ciaravola and the exceptional musical talent of accompanist Sylvain Durand. In the 72-munite Sur Les Pointes DVD, Andrey Klemm leads Ciaravola through a fast-paced, advanced-level barre and center. The accompanying CD features all of Durand's music from the DVD, 52 tracks for 39 exercises.

Klemm's combinations showcase Ciaravola's exquisite footwork. The barre is quite typical, but several center exercises are a pleasing hybrid of Russian and French style, which the Bolshoi-trained Klemm discusses further in a short interview.

also You can watch:

[code]http://avxhome.in/ebooks/port-de-bras-and-epaulement.html]Balanchine Essays: Port De Bras and Epaulement



MediaInfo:


General
Complete name :Sur Les Pointes avec une Etoile.avi
Format : AVI
Format/Info : Audio Video Interleave
File size : 217 MiB
Duration : 1h 10mn
Overall bit rate : 428 Kbps
Writing library : VirtualDub build 35576/release

Video
ID : 0
Format : AVC
Format/Info : Advanced Video Codec
Format profile : [email protected]
Format settings, CABAC : Yes
Format settings, ReFrames : 16 frames
Codec ID : H264
Duration : 1h 10mn
Bit rate : 290 Kbps
Width : 720 pixels
Height : 400 pixels
Display aspect ratio : 16:9
Frame rate : 25.000 fps
Color space : YUV
Chroma subsampling : 4:2:0
Bit depth : 8 bits
Scan type : Progressive
Bits/(Pixel*Frame) : 0.040
Stream size : 147 MiB (68%)
Writing library : x264 core 146 r2538bm 121396c
Encoding settings : cabac=1 / ref=16 / deblock=1:0:0 / analyse=0x3:0x133 / me=umh / subme=10 / psy=1 / psy_rd=1.00:0.00 / mixed_ref=1 / me_range=24 / chroma_me=1 / trellis=2 / 8x8dct=1 / cqm=0 / deadzone=21,11 / fast_pskip=1 / chroma_qp_offset=-2 / threads=12 / lookahead_threads=2 / sliced_threads=0 / nr=0 / decimate=1 / interlaced=0 / bluray_compat=0 / constrained_intra=0 / bframes=8 / b_pyramid=2 / b_adapt=2 / b_bias=0 / direct=3 / weightb=1 / open_gop=0 / weightp=2 / keyint=250 / keyint_min=25 / scenecut=40 / intra_refresh=0 / rc_lookahead=60 / rc=crf / mbtree=1 / crf=23.0 / qcomp=0.60 / qpmin=0 / qpmax=69 / qpstep=4 / ip_ratio=1.40 / aq=1:1.00

Audio
ID : 1
Format : AC-3
Format/Info : Audio Coding 3
Mode extension : CM (complete main)
Format settings, Endianness : Big
Codec ID : 2000
Duration : 1h 10mn
Bit rate mode : Constant
Bit rate : 128 Kbps
Channel(s) : 2 channels
Channel positions : Front: L R
Sampling rate : 48.0 KHz
Frame rate : 31.250 fps (1536 spf)
Compression mode : Lossy
Stream size : 65.0 MiB (30%)
Alignment : Aligned on interleaves
Interleave, duration : 40 ms (1.00 video frame)
Interleave, preload duration : 512 ms

Screenshots

Sur Les Pointes avec une Etoile - Isabelle Ciaravola, Andrey Klemm


Sur Les Pointes avec une Etoile - Isabelle Ciaravola, Andrey Klemm


Sur Les Pointes avec une Etoile - Isabelle Ciaravola, Andrey Klemm

Exclusive eLearning Videos [code]http://avxhome.in/blogs/ParRus] ParRus-blogadd to bookmarks

Sur Les Pointes avec une Etoile - Isabelle Ciaravola, Andrey Klemm





Buy Premium Account To Get Resumable Support & Max Speed

DOWNLOAD LINK


Links are Interchangeable - Single Extraction - Premium is support resumable
Direct Download


Tags: Pointes, Etoile, Isabelle, Ciaravola, Andrey


Sur Les Pointes avec une Etoile - Isabelle Ciaravola, Andrey Klemm Fast Download via Rapidshare Hotfile Fileserve Filesonic Megaupload, Sur Les Pointes avec une Etoile - Isabelle Ciaravola, Andrey Klemm Torrents and Emule Download or anything related.
Dear visitor, you went to website as unregistered user.
We encourage you to Register or Login to website under your name.

Add comments

Name:*
E-Mail:*
Comments:
Enter Code: *