Information of news
 (Votes #: 0)

Hands, Grooves & Fills with Pat Petrillo

Category: Tutorial

Download Now

Hands, Grooves & Fills with Pat Petrillo

Hands, Grooves & Fills with Pat Petrillo
DVDRip | English | MP4 + MP3 jam tracks + PDF tabs | 640 x 480 | AVC ~1500 kbps | 29.970 fps
AAC 169 Kbps 48.0 KHz | 2 channels | 02:35:59 | 1.95 GB
Genre: eLearning Video / Drum-set, Percussion

Hands, Grooves & Fills is a complete curriculum for developing technique, groove ideas and a fill vocabulary. Pat Petrillo is one of today's most prolific drummers, having backed such artists as Patti LaBelle, GLoria Gaynor, Glen Burtnik and Ed Hamilton. A world class clinician, he is also a faculty member at the Drummers Collective in New York City. In Hands, Grooves & Fills, Pat demonstrates his methods for improving ALL 3 of these important aspecs of drumming in ONE DVD/BOOK PACKAGE!

Designed for drummers of ALL LEVELS, Hands, Grooves & Fills is a complete curriculum for developing technique, groove ideas and a fill vocabulary.

HANDS: Pat demonstrates his exercises and methods for developing smooth, relaxxed hand technique, endurance and coordination. He also demonstrates all of the standard rudiments with modern interpretations, and shows you how to put them into musical phrases using his ground-breaking \Rudiment TAB System\.

GROOVES: Music is all about the groove, and Pat demonstrates how to develop bass drum technique and ghost note ideas, while having FUN with over 50 play along tracks featuring a great band of New York's finest musicians in the groove styles of Rock, R&B, Jam Band, New Orleans Funk, Fusion, Drum n' Bass and many more.

FILLS: Creating fills is always a challenge, and Pat shows his methods of orchestrating 16th notes, sextuplets and numerous rudiment stickings into creative, awesome sounding fills. If you are lacking a fill vocabulary, or always wanted to learn killer fills, PAT BREAKS IT ALL DOWN!

DVD and 52 page book package. Book includes CD with 125 MP3 play along tracks.

MediaInfo:


General
Complete name : 08 - RC2 - Pop Funk.mp4
Format : MPEG-4
Format profile : Base Media / Version 2
Codec ID : mp42 (mp42/isom/avc1)
File size : 14.3 MiB
Duration : 1mn 11s
Overall bit rate mode : Variable
Overall bit rate : 1 673 Kbps
Encoded date : UTC 2010-10-04 18:51:50
Tagged date : UTC 2010-10-04 18:52:11
Writing application : HandBrake 0.9.4 2009112300

Video
ID : 1
Format : AVC
Format/Info : Advanced Video Codec
Format profile : [email protected]
Format settings, CABAC : Yes
Format settings, ReFrames : 2 frames
Codec ID : avc1
Codec ID/Info : Advanced Video Coding
Duration : 1mn 11s
Bit rate : 1 500 Kbps
Width : 640 pixels
Height : 480 pixels
Display aspect ratio : 4:3
Frame rate mode : Constant
Frame rate : 29.970 (30000/1001) fps
Color space : YUV
Chroma subsampling : 4:2:0
Bit depth : 8 bits
Scan type : Progressive
Bits/(Pixel*Frame) : 0.163
Stream size : 12.8 MiB (90%)
Writing library : x264 core 79 r1347 5ddd61b
Encoding settings : cabac=1 / ref=2 / deblock=1:0:0 / analyse=0x3:0x113 / me=umh / subme=5 / psy=1 / psy_rd=0.0:0.0 / mixed_ref=1 / me_range=16 / chroma_me=1 / trellis=1 / 8x8dct=1 / cqm=0 / deadzone=21,11 / chroma_qp_offset=0 / threads=12 / nr=0 / decimate=1 / mbaff=0 / constrained_intra=0 / bframes=3 / b_pyramid=0 / b_adapt=1 / b_bias=0 / direct=1 / wpredb=1 / wpredp=2 / keyint=300 / keyint_min=30 / scenecut=40 / rc_lookahead=40 / rc=2pass / mbtree=1 / bitrate=1500 / ratetol=1.0 / qcomp=0.60 / qpmin=10 / qpmax=51 / qpstep=4 / cplxblur=20.0 / qblur=0.5 / ip_ratio=1.40 / aq=1:1.00
Encoded date : UTC 2010-10-04 18:51:50
Tagged date : UTC 2010-10-04 18:52:11
Color range : Limited
Color primaries : BT.601 NTSC
Transfer characteristics : BT.709
Matrix coefficients : BT.601

Audio
ID : 2
Format : AAC
Format/Info : Advanced Audio Codec
Format profile : LC
Codec ID : 40
Duration : 1mn 11s
Bit rate mode : Variable
Bit rate : 169 Kbps
Maximum bit rate : 244 Kbps
Channel(s) : 2 channels
Channel positions : Front: L R
Sampling rate : 48.0 KHz
Frame rate : 46.875 fps (1024 spf)
Compression mode : Lossy
Stream size : 1.45 MiB (10%)
Title : Stereo
Language : English
Encoded date : UTC 2010-10-04 18:51:50
Tagged date : UTC 2010-10-04 18:52:11
Download link:

Buy Premium To Support Me & Get Resumable Support & Max Speed:



Links are Interchangeable - No Password - Single Extraction
Direct Download


Tags: Grooves, Petrillo


Hands, Grooves & Fills with Pat Petrillo Fast Download via Rapidshare Hotfile Fileserve Filesonic Megaupload, Hands, Grooves & Fills with Pat Petrillo Torrents and Emule Download or anything related.
Dear visitor, you went to website as unregistered user.
We encourage you to Register or Login to website under your name.

Add comments

Name:*
E-Mail:*
Comments:
Enter Code: *