Information of news
  • Views: 0
  • Author: Oliver
  • Date: 14-03-2016, 05:40
 (Votes #: 0)

Daniel Sa Nogueira - World Coaching Foundation's International Coaching Certification Videos

Category: Tutorial

Download Now


Daniel Sa Nogueira - World Coaching Foundation's International Coaching Certification Videos
Daniel Sa Nogueira - World Coaching Foundation's International Coaching Certification Videos
WEBRip | English | MP4 | 1280 x 720 | AVC ~2429 kbps | 25 fps
AAC | 160 Kbps | 48.0 KHz | 2 channels | ~5 hours | 5.13 GB



These are the training videos used by Master Coach Daniel Sá Nogueira's World Coaching Organization. They are part of a Certificate Course in Coaching and detail the WCOs Coaching System. While it is not an exhaustive course (totaling at a little under 5 hours) the training videos should enable anyone to start a Coaching practice, or apply coaching to their own life.

MediaInfo:
General
Complete name : 2.0 - Daniels Story.mp4
Format : MPEG-4
Format profile : Base Media / Version 2
Codec ID : mp42 (mp42/mp41/isom/avc1)
File size : 219 MiB
Duration : 11mn 48s
Overall bit rate mode : Variable
Overall bit rate : 2 593 Kbps
Encoded date : UTC 2015-08-27 00:26:46
Tagged date : UTC 2015-08-27 00:26:46
Video
ID : 1
Format : AVC
Format/Info : Advanced Video Codec
Format settings, CABAC : Yes
Format settings, ReFrames : 5 frames
Codec ID : avc1
Codec ID/Info : Advanced Video Coding
Duration : 11mn 48s
Bit rate : 2 429 Kbps
Width : 1 280 pixels
Height : 720 pixels
Display aspect ratio : 16:9
Frame rate mode : Constant
Frame rate : 25.000 fps
Color space : YUV
Chroma subsampling : 4:2:0
Bit depth : 8 bits
Scan type : Progressive
Bits/(Pixel*Frame) : 0.105
Stream size : 205 MiB (94%)
Writing library : x264 core 148 r11 73ae2d1
Encoding settings : cabac=1 / ref=5 / deblock=1:0:0 / analyse=0x3:0x113 / me=umh / subme=8 / psy=1 / psy_rd=1.00:0.00 / mixed_ref=1 / me_range=16 / chroma_me=1 / trellis=1 / 8x8dct=1 / cqm=0 / deadzone=21,11 / fast_pskip=1 / chroma_qp_offset=-2 / threads=22 / lookahead_threads=3 / sliced_threads=0 / nr=0 / decimate=1 / interlaced=0 / bluray_compat=0 / stitchable=1 / constrained_intra=0 / bframes=3 / b_pyramid=2 / b_adapt=2 / b_bias=0 / direct=3 / weightb=1 / open_gop=0 / weightp=2 / keyint=infinite / keyint_min=25 / scenecut=40 / intra_refresh=0 / rc_lookahead=50 / rc=crf / mbtree=1 / crf=20.0 / qcomp=0.60 / qpmin=5 / qpmax=69 / qpstep=4 / vbv_maxrate=2750 / vbv_bufsize=7500 / crf_max=0.0 / nal_hrd=none / filler=0 / ip_ratio=1.40 / aq=1:1.00
Encoded date : UTC 2015-08-27 00:26:46
Tagged date : UTC 2015-08-27 00:26:46
Color range : Limited
Color primaries : BT.709
Transfer characteristics : BT.709
Matrix coefficients : BT.709
Audio
ID : 2
Format : AAC
Format/Info : Advanced Audio Codec
Format profile : LC
Codec ID : 40
Duration : 11mn 48s
Bit rate mode : Variable
Bit rate : 160 Kbps
Channel(s) : 2 channels
Channel positions : Front: L R
Sampling rate : 48.0 KHz
Frame rate : 46.875 fps (1024 spf)
Compression mode : Lossy
Stream size : 13.5 MiB (6%)
Encoded date : UTC 2015-08-27 00:26:46
Tagged date : UTC 2015-08-27 00:26:46

Screenshots
Daniel Sa Nogueira - World Coaching Foundation's International Coaching Certification Videos
Daniel Sa Nogueira - World Coaching Foundation's International Coaching Certification Videos
Daniel Sa Nogueira - World Coaching Foundation's International Coaching Certification Videos
Daniel Sa Nogueira - World Coaching Foundation's International Coaching Certification Videos
For more Exclusive material, Visit my
Daniel Sa Nogueira - World Coaching Foundation's International Coaching Certification Videos

[b

I recommends Buy premimum account for High speed+parallel downloads!

Rapidgator


Nitroflare


uploaded

Direct Download


Tags: Daniel, Nogueira, Coaching, Foundation, International, Coaching, Certification, Videos


Daniel Sa Nogueira - World Coaching Foundation's International Coaching Certification Videos Fast Download via Rapidshare Hotfile Fileserve Filesonic Megaupload, Daniel Sa Nogueira - World Coaching Foundation's International Coaching Certification Videos Torrents and Emule Download or anything related.
Dear visitor, you went to website as unregistered user.
We encourage you to Register or Login to website under your name.

Add comments

Name:*
E-Mail:*
Comments:
Enter Code: *