Information of news
  • Views: 0
  • Author: Oliver
  • Date: 11-03-2016, 03:59
 (Votes #: 0)

Lick Library Ultimate Blues Jam Session - Volume 2

Category: Tutorial

Download Now


Lick Library  Ultimate Blues Jam Session - Volume 2
Lick Library: Ultimate Blues Jam Session - Volume 2
DVD5 | English | VIDEO_TS + MP3 jam tracks | 720 x 480 | MPEG2 ~2166 kbps | 29.970 fps
AC-3 192 Kbps 48.0 KHz | 2 channels | ~2 hours | 1.88 GB




The ultimate DVD for the aspiring blues guitar player, with full tutorial lessons and a generous selection of backing tracks to jam to. This DVD is complete with an audio CD that contains 10 professionally-produced jam sessions, minus the lead guitar. All you have to do is follow the detailed lessons on the DVD and you'll learn everything you need to jam a great blues solo. You will learn scales, chords, rhythm ideas and countless string-burning licks, giving you all the confidence to jam with a full band.

MediaInfo:
General
Complete name : VTS_07_1.VOB
Format : MPEG-PS
File size : 145 MiB
Duration : 8mn 25s
Overall bit rate mode : Variable
Overall bit rate : 2 406 Kbps
Video
ID : 224 (0xE0)
Format : MPEG Video
Format version : Version 2
Format profile : [email protected]
Format settings, BVOP : Yes
Format settings, Matrix : Custom
Format settings, GOP : M=3, N=15
Format settings, picture structure : Frame
Duration : 8mn 25s
Bit rate mode : Variable
Bit rate : 2 166 Kbps
Maximum bit rate : 7 000 Kbps
Width : 720 pixels
Height : 480 pixels
Display aspect ratio : 4:3
Frame rate : 29.970 (30000/1001) fps
Standard : NTSC
Color space : YUV
Chroma subsampling : 4:2:0
Bit depth : 8 bits
Scan type : Interlaced
Scan order : Bottom Field First
Compression mode : Lossy
Bits/(Pixel*Frame) : 0.209
Time code of first frame : 00:00:00:00
Time code source : Group of pictures header
GOP, Open/Closed : Open
GOP, Open/Closed of first frame : Closed
Stream size : 131 MiB (90%)
Audio
ID : 189 (0xBD)-128 (0x80)
Format : AC-3
Format/Info : Audio Coding 3
Mode extension : CM (complete main)
Format settings, Endianness : Big
Muxing mode : DVD-Video
Duration : 8mn 25s
Bit rate mode : Constant
Bit rate : 192 Kbps
Channel(s) : 2 channels
Channel positions : Front: L R
Sampling rate : 48.0 KHz
Frame rate : 31.250 fps (1536 spf)
Compression mode : Lossy
Stream size : 11.6 MiB (8%)
Menu

Screenshots
Lick Library  Ultimate Blues Jam Session - Volume 2
Lick Library  Ultimate Blues Jam Session - Volume 2
Lick Library  Ultimate Blues Jam Session - Volume 2
For more Exclusive material, Visit my
Lick Library  Ultimate Blues Jam Session - Volume 2



[b]I recommends Buy premimum account for High speed+parallel downloads!


Rapidgator


Nitroflare


uploaded

Direct Download


Tags: Library, Ultimate, Session


Lick Library Ultimate Blues Jam Session - Volume 2 Fast Download via Rapidshare Hotfile Fileserve Filesonic Megaupload, Lick Library Ultimate Blues Jam Session - Volume 2 Torrents and Emule Download or anything related.
Dear visitor, you went to website as unregistered user.
We encourage you to Register or Login to website under your name.

Add comments

Name:*
E-Mail:*
Comments:
Enter Code: *