Information of news
 (Votes #: 0)

Chasses Au Pigeon

Category: Tutorial

Download Now

Chasses Au Pigeon

Chasses Au Pigeon
DVDRip | MP4 | French | 700 x 540 | AVC ~2500 kbps | 25 fps
AAC | 128 Kbps | 48.0 KHz | 2 channels | 00:53:01 | 997.2 MB
Genre: eLearning Video / Hunting

"Pigeon Ramier, Pigeon domestique. la chasse du pigeon à poste fixe. Tir en ralentit"

General
Complete name : Chasses au pigeon DVDrip.mp4
Format
: MPEG-4
Format profile : Base Media
Codec ID
: isom
File size
: 997 MiB
Duration
: 53mn 1s
Overall bit rate : 2 630 Kbps
Movie name
: Chasses au pigeon FRENCH DVDrip AVC AAC CrazyFr
Performer
: MacX Video Converter Pro
Genre
: Video
Writing application

: Lavf55.48.100

Video
ID : 1
Format
: AVC
Format/Info
: Advanced Video Codec
Format profile : [email protected]
Format settings, CABAC : Yes
Format settings, ReFrames : 5 frames
Codec ID
: avc1
Codec ID/Info : Advanced Video Coding
Duration
: 53mn 1s
Bit rate
: 2 500 Kbps
Width
: 700 pixels
Height
: 540 pixels
Display aspect ratio : 1.296
Frame rate mode : Constant
Frame rate
: 25.000 fps
Color space
: YUV
Chroma subsampling

: 4:2:0
Bit depth
: 8 bits
Scan type
: Progressive
Bits/(Pixel*Frame)

: 0.265
Stream size
: 946 MiB (95%)
Writing library : x264 core 142
Encoding settings: cabac=1 / ref=5 / deblock=1:0:0 / analyse=0x3:0x113 / me=umh / subme=8 / psy=1 / psy_rd=1.00:0.00 / mixed_ref=1 / me_range=16 / chroma_me=1 / trellis=1 / 8x8dct=1 / cqm=0 / deadzone=21,11 / fast_pskip=1 / chroma_qp_offset=-2 / threads=6 / lookahead_threads=1 / sliced_threads=0 / nr=0 / decimate=1 / interlaced=0 / bluray_compat=0 / constrained_intra=0 / bframes=3 / b_pyramid=2 / b_adapt=2 / b_bias=0 / direct=3 / weightb=1 / open_gop=0 / weightp=2 / keyint=250 / keyint_min=25 / scenecut=40 / intra_refresh=0 / rc_lookahead=50 / rc=abr / mbtree=1 / bitrate=2500 / ratetol=1.0 / qcomp=0.60 / qpmin=0 / qpmax=69 / qpstep=4 / ip_ratio=1.40 / aq=1:1.00

Audio
ID : 2
Format
: AAC
Format/Info
: Advanced Audio Codec
Format profile : LC
Codec ID
: 40
Duration
: 53mn 1s
Duration_LastFrame

: -13ms
Bit rate mode : Constant
Bit rate
: 128 Kbps
Channel(s)
: 2 channels
Channel positions: Front: L R
Sampling rate : 48.0 KHz
Compression mode : Lossy
Stream size
: 48.5 MiB (5%)
Language
: French

Screenshots

Chasses Au Pigeon

Chasses Au Pigeon

Chasses Au Pigeon



DOWNLOAD LINKS:
Buy Premium To Support Me & Get Resumable Support & Max Speed


Links are Interchangeable - No Password - Single Extraction
Direct Download


Tags: Chasses, Pigeon


Chasses Au Pigeon Fast Download via Rapidshare Hotfile Fileserve Filesonic Megaupload, Chasses Au Pigeon Torrents and Emule Download or anything related.
Dear visitor, you went to website as unregistered user.
We encourage you to Register or Login to website under your name.

Add comments

Name:*
E-Mail:*
Comments:
Enter Code: *