Information of news
 (Votes #: 0)

B&Qtiles - Lessons on Tiling

Category: Tutorial

Download Now

B&Qtiles - Lessons on Tiling

B&Qtiles - Lessons on Tiling
DVDRip | English | AVI | 640 x 360 | XviD ~1273 Kbps | 25 fps
MP3 | 128 Kbps | 48.0 KHz | 2 channels | 01:56:38 | 1.08 GB
Genre: eLearning Video / Construction, Homebuilding, Repair
In this tape, designed for professionals and homeowners alike, Savage guides you step-by-step as he trims out parts of a house and shares his job-site savvy and secrets. Youll learn to match pieces of trim precisely, negotiate unsquare openings, and seat moldings solidly against bumpy walls and ceilings.

You can look other useful Homebuilding videos:

and my other last:

General
Complete name : Wall tiles.avi
Format : AVI
Format/Info : Audio Video Interleave
File size : 742 MiB
Duration : 1h 13mn
Overall bit rate : 1 411 Kbps
Writing application : VirtualDubMod 1.5.10.2 (build 2540/release)
Writing library : VirtualDubMod build 2540/release

Video
ID : 0
Format : MPEG-4 Visual
Format profile : Advanced [email protected]
Format settings, BVOP : 1
Format settings, QPel : No
Format settings, GMC : No warppoints
Format settings, Matrix : Default (MPEG)
Codec ID : XVID
Codec ID/Hint : XviD
Duration : 1h 13mn
Bit rate : 1 273 Kbps
Width : 640 pixels
Height : 360 pixels
Display aspect ratio : 16:9
Frame rate : 25.000 fps
Color space : YUV
Chroma subsampling : 4:2:0
Bit depth : 8 bits
Scan type : Progressive
Compression mode : Lossy
Bits/(PixelFrame) : 0.221
Stream size : 669 MiB (90%)
Writing library : XviD 1.2.1 (UTC 2008-12-04)

Audio
ID : 1
Format : MPEG Audio
Format version : Version 1
Format profile : Layer 3
Codec ID : 55
Codec ID/Hint : MP3
Duration : 1h 13mn
Bit rate mode : Constant
Bit rate : 128 Kbps
Channel(s) : 2 channels
Sampling rate : 48.0 KHz
Compression mode : Lossy
Stream size : 67.3 MiB (9%)
Alignment : Aligned on interleaves
Interleave, duration : 40 ms (1.00 video frame)
Interleave, preload duration : 504 ms
Writing library : LAME3.98r
Encoding settings : -m s -V 4 -q 2 -lowpass 17 -b 128

Screenshots

B&Qtiles - Lessons on Tiling

B&Qtiles - Lessons on Tiling

B&Qtiles - Lessons on Tiling

B&Qtiles - Lessons on Tiling

B&Qtiles - Lessons on Tiling

Download link:

Buy Premium To Support Me & Get Resumable Support & Max Speed:



Links are Interchangeable - No Password - Single Extraction
Direct Download


Tags: Qtiles, Lessons, Tiling


B&Qtiles - Lessons on Tiling Fast Download via Rapidshare Hotfile Fileserve Filesonic Megaupload, B&Qtiles - Lessons on Tiling Torrents and Emule Download or anything related.
Dear visitor, you went to website as unregistered user.
We encourage you to Register or Login to website under your name.

Add comments

Name:*
E-Mail:*
Comments:
Enter Code: *