Information of news
 (Votes #: 0)

Mosaic Damascus with Ed Caffrey

Category: Tutorial

Download Now

http://i65.fastpic.ru/big/2015/1021/bc/09d2c05c65a31832b303cba2acde93bc.jpg

Mosaic Damascus with Ed Caffrey
DVD5 | English | VIDEO_TS | 720 x 480 | MPEG2 ~5004 Kbps | 29.970 fps
AC-3 | 192 Kbps | 48.0 KHz | 2 channels | 109 minutes | 4.13 GB
Genre: eLearning Video / Forging

In this DVD, ABS Mastersmith Ed Caffrey will show you some of the most common Mosaic Damascus patterns. The information is designed to be easy to understand, and will allow you to take the "next logical step" towards producing your own Mosaic Damascus. Ed covers how to create a radial pattern, a basket weave pattern, a jelly roll pattern, and how to do an "accordion" fold. This DVD, at almost two hours, also provides a recap of tools, safety, and etching as explained in Basic Bladesmithing (DVD), and, Basic Damascus (DVD). If you're interested in how Mosaic Damascus is produced, this is the DVD for you. Note: This video is for advanced knifemakers and shows methods using a forge and a hydraulic press.
General
Complete name : VTS_04_3.VOB
Format : MPEG-PS
File size : 1 024 MiB
Duration : 27mn 0s
Overall bit rate mode : Variable
Overall bit rate : 5 301 Kbps

Video
ID : 224 (0xE0)
Format : MPEG Video
Format version : Version 2
Format profile : [email protected]
Format settings, BVOP : Yes
Format settings, Matrix : Default
Format settings, GOP : M=3, N=15
Duration : 26mn 59s
Bit rate mode : Variable
Bit rate : 5 004 Kbps
Maximum bit rate : 8 500 Kbps
Width : 720 pixels
Height : 480 pixels
Display aspect ratio : 4:3
Frame rate : 29.970 fps
Standard : NTSC
Color space : YUV
Chroma subsampling : 4:2:0
Bit depth : 8 bits
Scan type : Interlaced
Scan order : Bottom Field First
Compression mode : Lossy
Bits/(Pixel*Frame) : 0.483
Stream size : 966 MiB (94%)

Audio
ID : 189 (0xBD)-128 (0x80)
Format : AC-3
Format/Info : Audio Coding 3
Mode extension : CM (complete main)
Muxing mode : DVD-Video
Duration : 27mn 0s
Bit rate mode : Constant
Bit rate : 192 Kbps
Channel(s) : 2 channels
Channel positions : Front: L R
Sampling rate : 48.0 KHz
Bit depth : 16 bits
Compression mode Woodworking, Home Repairs : Lossy
Delay relative to video : -662ms
Stream size : 37.1 MiB (4%)

Menu

Screenshots

http://i65.fastpic.ru/big/2015/1021/24/0ea5110c7f19e2cca230daba2e33fe24.jpg

http://i58.fastpic.ru/big/2015/1021/6a/1fc7777c2b08f4db14642d8c01eb8c6a.jpg

http://i57.fastpic.ru/big/2015/1021/36/5926ff53f9639bd57a20ccf630937336.jpg

http://i66.fastpic.ru/big/2015/1021/05/a434a4e33ea82c8a7e7f4a6f8486b505.jpg

http://i58.fastpic.ru/big/2015/1021/f2/452fbe0cc6ffecf4cb869354b4ea91f2.jpg

http://i59.fastpic.ru/big/2015/1021/e9/af146cdcf2d1ac374c87d8a9fdc1e9e9.jpg


Download link:
Links are Interchangeable - Single Extraction - Premium is support resumable
Direct Download


Tags: Mosaic, Damascus, Caffrey


Mosaic Damascus with Ed Caffrey Fast Download via Rapidshare Hotfile Fileserve Filesonic Megaupload, Mosaic Damascus with Ed Caffrey Torrents and Emule Download or anything related.
Dear visitor, you went to website as unregistered user.
We encourage you to Register or Login to website under your name.

Add comments

Name:*
E-Mail:*
Comments:
Enter Code: *