Information of news
 (Votes #: 0)

Blindfold Practice with Vytas Baskauskas (2015)

Category: Tutorial

Download Now

http://i58.fastpic.ru/big/2015/1017/09/517a9cd9414af3ec4e903a1e4b807509.jpg

Blindfold Practice with Vytas Baskauskas
WEBRip | English | MP4 | 1280 x 720 | AVC ~1818 Kbps | 23.976 fps
AAC | 161 kbps | 48.0 KHz | 2 channel | 01:04:14 | 912 MB
Genre: Video Training / Yoga

Vytas Baskauskas leads a group of yoga student through a feeling practice by obstruction the visual sense. You can watch the whole class, Blindfold Practice
VYTAS BASKAUSKAS
Ever since I can remember, I have been on the search for more, for something greater. Growing up in LA, I never truly felt comfortable in my own skin. I hungered for knowledge and growth through perspectives that differed from myopic western systems. After reading some Alan Watts and Krishnamurti my thirst grew stronger and, although I didn't know it at the time, I began my path seeking out yoga. Some of my old friends had found yoga and invited me to classes with them. At first, I rejected the notion. My assumptions about yogis kept me away: there was no way I was going to start eating tofu, opening chakras and chanting to Gods I knew nothing about. Thanks to my persistent friends, I walked into a Bryan Kest class in the summer of 2000. His down to earth approach was exactly what I needed and I instantly resonated with the physical benefits of the practice. The practice was a perfect companion for my recovery: my body healed from the abuse of addiction, and my mind grew clearer. The high I had experienced with heroin was now replaced by calmness, balance and equanimity. My practice grew and I found another great teacher that gave me new insights and pearls. Govindas showed me the soul of yoga. However, my seeking did not subside. After finishing graduate school in mathematics at UCLA, I noticed that Bryan was doing a teacher training in Mexico. I wasn't interested in teaching, but wanted to deepen my practice and travel. The training exposed me to new ideas, two of which I connected with immediately. The first was a 3-day Iyengar intensive with Lisa Walford. My analytical mind was intrigued by the depth of alignment instruction and precision she presented. I was hooked. In addition to intense physical practice every day, we meditated at the end of the evening for 45 minutes. This was the next step for me. Even though I had achieved great control over my body, I realized I had almost no control over my own mind. Meditation was the most challenging part for me in the training, and at the same time, the most rewarding. Today I practice asana regularly at home and try my best to meditate every day. My teacher Vinnie Marino helps me continue to learn better ways to teach and incorporate my yoga into day-to-day life. He is a wonderful mentor and friend. I have climbed but a few steps of the ladder and am working my way upward still. Every fault is an opportunity for growth and every day is an opportunity for life. I am lucky to have great friends and family to share the love with. Hope to see you as we follow the road to happy destiny.

General
Complete name : Vytas Baskauskas Yoga - Blindfold Practice 60 min.mp4
Format : MPEG-4
Format profile : Base Media / Version 2
Codec ID : mp42
File size : 912 MiB
Duration : 1h 4mn
Overall bit rate mode : Variable
Overall bit rate : 1 985 Kbps
Encoded date : UTC 2036-02-06 06:28:16
Tagged date : UTC 2036-02-06 06:28:16
Writing application : HandBrake 0.10.2 2015060900

Video
ID : 1
Format : AVC
Format/Info : Advanced Video Codec
Format profile : [email protected]
Format settings, CABAC : Yes
Format settings, ReFrames : 4 frames
Codec ID : avc1
Codec ID/Info : Advanced Video Coding
Duration : 1h 4mn
Bit rate : 1 818 Kbps
Width : 1 280 pixels
Height : 720 pixels
Display aspect ratio : 16:9
Frame rate mode : Variable
Frame rate : 23.976 fps
Minimum frame rate : 23.974 fps
Maximum frame rate : 23.981 fps
Color space : YUV
Chroma subsampling : 4:2:0
Bit depth : 8 bits
Scan type : Progressive
Bits/(Pixel*Frame) : 0.082
Stream size : 835 MiB (92%)
Writing library : x264 core 142 r2479 dd79a61
Encoding settings : cabac=1 / ref=1 / deblock=1:0:0 / analyse=0x1:0x111 / me=hex / subme=2 / psy=1 / psy_rd=1.00:0.00 / mixed_ref=0 / me_range=16 / chroma_me=1 / trellis=0 / 8x8dct=0 / cqm=0 / deadzone=21,11 / fast_pskip=1 / chroma_qp_offset=0 / threads=12 / lookahead_threads=4 / sliced_threads=0 / nr=0 / decimate=1 / interlaced=0 / bluray_compat=0 / constrained_intra=0 / bframes=3 / b_pyramid=2 / b_adapt=1 / b_bias=0 / direct=1 / weightb=1 / open_gop=0 / weightp=1 / keyint=240 / keyint_min=24 / scenecut=40 / intra_refresh=0 / rc_lookahead=10 / rc=2pass / mbtree=1 / bitrate=1818 / ratetol=1.0 / qcomp=0.60 / qpmin=0 / qpmax=69 / qpstep=4 / cplxblur=20.0 / qblur=0.5 / vbv_maxrate=20000 / vbv_bufsize=25000 / nal_hrd=none / filler=0 / ip_ratio=1.40 / aq=1:1.00
Encoded date : UTC 2036-02-06 06:28:16
Tagged date : UTC 2036-02-06 06:28:16
Color primaries : BT.709-5, BT.1361, IEC 61966-2-4, SMPTE RP177
Transfer characteristics : BT.709-5, BT.1361
Matrix coefficients : BT.709-5, BT.1361, IEC 61966-2-4 709, SMPTE RP177

Audio
ID : 2
Format : AAC
Format/Info : Advanced Audio Codec
Format profile : LC
Codec ID : 40
Duration : 1h 4mn
Bit rate mode : Variable
Bit rate : 161 Kbps
Channel(s) : 2 channels
Channel positions : Front: L R
Sampling rate : 48.0 KHz
Compression mode : Lossy
Stream size : 73.8 MiB (8%)
Title : Stereo
Encoded date : UTC 2036-02-06 06:28:16
Tagged date : UTC 2036-02-06 06:28:16

Screenshots

http://i68.fastpic.ru/big/2015/1017/d8/7ce6430f140df849bd6c884dcafa87d8.jpg

http://i57.fastpic.ru/big/2015/1017/0d/6a1950d747ef05be9fc93f2b541f430d.jpg

http://i58.fastpic.ru/big/2015/1017/b9/dcae90a8fa2b2f89ec58d8b4b4b6e2b9.jpg

http://i66.fastpic.ru/big/2015/1017/28/efdd950812ff2bdea36f9f33b51b5328.jpg

http://i57.fastpic.ru/big/2015/1017/70/7339618cbf8c267d506622f5d0a94d70.jpg


Download link:
Links are Interchangeable - Single Extraction - Premium is support resumable
Direct Download


Tags: Blindfold, Practice, Baskauskas


Blindfold Practice with Vytas Baskauskas (2015) Fast Download via Rapidshare Hotfile Fileserve Filesonic Megaupload, Blindfold Practice with Vytas Baskauskas (2015) Torrents and Emule Download or anything related.
Dear visitor, you went to website as unregistered user.
We encourage you to Register or Login to website under your name.

Add comments

Name:*
E-Mail:*
Comments:
Enter Code: *