Information of news
 (Votes #: 0)

Amy Porterfield - Webinars That Convert

Category: Tutorial

Download Now

http://i60.fastpic.ru/big/2015/1016/5f/61935617dd3ac4c4653e40acc880dd5f.jpg

Amy Porterfield - Webinars That Convert
WEBRip | English | MP4 + MP3 + PDF Guides | 1280 x 716 | AVC ~928 kbps | 10 fps
AAC | 74.9 Kbps | 44.1 KHz | 2 channels | ~13 hours | 1.64 GB
Genre: eLearning Video / Business, Net: Advertising, Web Traffic

Yet despite all of this, the thought of doing webinars has never slipped too far down the bottom of your to-do list, because deep down in your entrepreneurial heart, you KNOW that pulling off an effective webinar strategy is the KEY to scaling and automating your growth while FINALLY creating more profits, freedom, and fandom in your business.
5 Modules:
MODULE 1: THE WEBINAR PLANNING PHASE
MODULE 2: THE PRE-WEBINAR PHASE
MODULE 3: THE LIVE WEBINAR PHASE
MODULE 4: THE POST-WEBINAR PHASE
MODULE 5: THE AUTOMATED WEBINAR FUNNEL

YOUR FIRST 5-FIGURE WEBINAR
IN THE NEXT 30 DAYS

Even if you're allergic to tech, your email list & sales funnel is a "work in progress", and the idea of having to sell has you stuttering your words.

If you sell info products, digital courses, or coaching and consulting services online, then you've SURELY at least considered the possibility of adding webinars to your marketing strategy by now.

And perhaps they've been top of mind for awhile...
...lumped in with the millions of other things taunting you on your "someday to-do" list.

A nagging, lingering "should" that you could never quite bring yourself around to finally doing.
Perhaps you've even forgotten WHY you haven't created and implemented a webinar strategy by now.

Or, if you're highly aware, perhaps you've identified the lack of action to be a murky cocktail of:

Not wanting to waste time or money on a complex tech set-up that's all but guaranteed to be a glitchy disaster.
A lack of confidence in speaking to a live audience... and then having to sell to them.
A preoccupation with email list building, content marketing, or architecting a fancy, million-dollar sales funnel complete with upsells, downsells, tripwires, maximizers, tranquilizers, etc. (Okay, maybe not the last one.)
Setting up an awesome party (your webinar) only for nobody to show up. smilie
Yet despite all of this, the thought of doing webinars has never slipped too far down the bottom of your to-do list, because deep down in your entrepreneurial heart, you KNOW that pulling off an effective webinar strategy is the KEY to scaling and automating your growth while FINALLY creating more profits, freedom, and fandom in your business.

And THAT is what I'm going to help you accomplish today.
So even if you think that you're a bit behind the curve...
...that the opportunity has come and passed...
...that webinar attendance is fluttering - attention spans dwindling - conversions plummeting - and ad costs skyrocketing.
(And you wouldn't be ENTIRELY wrong on any of these fronts, either.)

THERE'S STILL IS A WAY FOR YOU TO PIONEER THE NEXT PHASE OF
WEBINAR MARKETING, AND IN DOING SO:

Build a highly engaged email list that hangs on every value-soaked word that spills from your lips.
Architect a simple yet massively profitable webinar funnel that allows you to quickly scale up and put your profit-generating machine on autopilot. (Hmm...so THAT'S the whole "passive income" thing marketing gurus have been so hot on for the last decade.)
Do MORE of what you love (creating and teaching new awesome material) and less of what kills your vibe (desperately trying to keep up with every marketing hack, trick or tactic that hits your inbox).

Because with the right strategy and step-by-step training,
you'll be able to:

String together your tech and software with ease, knowing that you've taken all the necessary steps to avoid the glitched-up horror stories that people love to vent about on Facebook.
Never waste hundreds of dollars on leads and registrants that never show up - instead, you'll take your final sips of pre-webinar tea (I prefer oolong), knowing that the room is JAM PACKED full of dozens or hundreds of new fans eager to hear your message.
Anticipate your first 5-figure payday, knowing that the next one is simply a matter of repeating the process you've already mastered.
Never worry about striking the right balance between teaching and selling on your presentations - and instead be able to expertly weave the two together in a harmonious way that delivers VALUE to your audience and compels them to hit "Buy."
And most importantly...
Be assured that NO effort is wasted. That every bit of energy you put into your webinar strategy will pay off a hundredfold. That webinar creation and delivery has become a $1,000/hour activity, because every action you take is going into a highly-refined system that is PROVEN to churn out profits.
Price: $997
General
Complete name : wtc_m1_l5.mp4
Format : QuickTime
Format/Info : Original Apple specifications
File size : 31.9 MiB
Duration : 35mn 56s
Overall bit rate mode : Variable
Overall bit rate : 124 Kbps
Encoded date : UTC 2015-09-04 02:23:30
Tagged date : UTC 2015-09-04 02:23:30
Writing application : Lavf53.29.100

Video
ID : 1
Format : AVC
Format/Info : Advanced Video Codec
Format profile : [email protected]
Format settings, CABAC : Yes
Format settings, ReFrames : 7 frames
Codec ID : avc1
Codec ID/Info : Advanced Video Coding
Duration : 35mn 56s
Bit rate : 45.9 Kbps
Nominal bit rate : 928 Kbps
Width : 1 280 pixels
Height : 716 pixels
Display aspect ratio : 16:9
Frame rate mode : Constant
Frame rate : 10.000 fps
Color space : YUV
Chroma subsampling : 4:2:0
Bit depth : 8 bits
Scan type : Progressive
Bits/(Pixel*Frame) : 0.005
Stream size : 11.8 MiB (37%)
Writing library : x264 core 120 r2120 0c7dab9
Encoding settings : cabac=1 / ref=7 / deblock=1:0:0 / analyse=0x1:0x111 / me=umh / subme=8 / psy=0 / mixed_ref=1 / me_range=16 / chroma_me=1 / trellis=1 / 8x8dct=0 / cqm=0 / deadzone=21,11 / fast_pskip=1 / chroma_qp_offset=0 / threads=12 / sliced_threads=0 / nr=0 / decimate=1 / interlaced=0 / bluray_compat=0 / constrained_intra=0 / bframes=3 / b_pyramid=2 / b_adapt=2 / b_bias=0 / direct=3 / weightb=1 / open_gop=0 / weightp=2 / keyint=250 / keyint_min=25 / scenecut=40 / intra_refresh=0 / rc=2pass / mbtree=0 / bitrate=928 / ratetol=1.0 / qcomp=0.60 / qpmin=10 / qpmax=51 / qpstep=4 / cplxblur=20.0 / qblur=0.5 / ip_ratio=1.40 / pb_ratio=1.30 / aq=1:1.00
Encoded date : UTC 2015-09-04 02:23:30
Tagged date : UTC 2015-09-04 02:23:30

Audio
ID : 2
Format : AAC
Format/Info : Advanced Audio Codec
Format profile : LC
Codec ID : 40
Duration : 35mn 56s
Bit rate mode : Variable
Bit rate : 74.9 Kbps
Maximum bit rate : 96.0 Kbps
Channel(s) : 2 channels
Channel positions : Front: L R
Sampling rate : 44.1 KHz
Compression mode : Lossy
Stream size : 19.3 MiB (60%)
Encoded date : UTC 2015-09-04 02:23:30
Tagged date : UTC 2015-09-04 02:23:30

Screenshots

http://i65.fastpic.ru/big/2015/1016/92/2fb465621e0e5badc3149a0f859aa692.jpg

http://i58.fastpic.ru/big/2015/1016/2f/26a51c43d94db6a400a110c4d6c3ff2f.jpg

http://i60.fastpic.ru/big/2015/1016/31/f21edcd1530fd181b9cfcba1eac1eb31.jpg

http://i66.fastpic.ru/big/2015/1016/af/b787d2e892e31e1aefc2415ead435caf.jpg


Download link:
Links are Interchangeable - Single Extraction - Premium is support resumable
Direct Download


Tags: Porterfield, Webinars, Convert


Amy Porterfield - Webinars That Convert Fast Download via Rapidshare Hotfile Fileserve Filesonic Megaupload, Amy Porterfield - Webinars That Convert Torrents and Emule Download or anything related.
Dear visitor, you went to website as unregistered user.
We encourage you to Register or Login to website under your name.

Add comments

Name:*
E-Mail:*
Comments:
Enter Code: *