Information of news
 (Votes #: 0)

Universal Andrey Lappa - Theory Of Yoga - Level 1

Category: Tutorial

Download Now

Universal Andrey Lappa - Theory Of Yoga - Level 1
DVD5 | English | VIDEO_TS | 720 x 480 | AVC ~2426 Kbps | 29.970 fps
AC-3 | 192 kbps | 48.0 KHz | 2 channel | ~3 hours | 4.33 GB
Genre: Video Training / Yoga

Universal Yoga is a systematic approach to spiritual evolution based on the key principles of classical yoga, creativity in practice and personal freedom. Andrey Lappa developed the Universal Yoga system after two decades of intensive study and practice with spiritual teachers throughout Asia. His theory lectures offer insightful and comprehensive knowledge and skills for harmonizing spiritual awakening through yoga with everyday life.
We've captured and packaged the entire lecture portion of Andrey's Level 1 Advanced Studies program and made it available on a multi-DVD set. Over 24 hours of edited material guides you through a truly unique workshop experience that presents Andrey's brilliant synthesis of hatha yoga as well as his provocative insights into more esoteric practices. This fascinating series of lectures on yoga philosophy is as much a training on being a yogi as it is a workshop on how to teach yoga.

The lectures are presented exactly as if the viewer were participating in the teacher training. We've preserved as much of the natural feel of the experience as possible, including a great number of real questions from the other students in the class. Andrey makes extensive use of a large presentation easel to list important details, draw diagrams and describe asanas. We've made sure to include close-ups of this information on the DVDs, but also created a 16-page, full-color Reference Guide that offers some of the more intricate diagrams in printed form for ease of use and review.

The Level 1 box set focuses on the universal theory of asanas, vinyasas, pranayamas, bandhas, mudras, etc.-essentially the building blocks of a yoga practice. The box set also includes extensive lectures on kundalini, chakras, the yamas and niyamas, the koshas, and karma.

Complete name : VTS_02_3.VOB
Format : MPEG-PS
File size : 1 018 MiB
Duration : 53mn 16s
Overall bit rate mode : Variable
Overall bit rate : 2 671 Kbps

ID : 224 (0xE0)
Format : MPEG Video
Format version : Version 2
Format profile : [email protected]
Format settings, BVOP : Yes
Format settings, Matrix : Custom
Format settings, GOP : M=3, N=15
Duration : 53mn 16s
Bit rate mode : Variable
Bit rate : 2 426 Kbps
Maximum bit rate : 5 821 Kbps
Width : 720 pixels
Height : 480 pixels
Display aspect ratio : 4:3
Frame rate : 29.970 fps
Standard : NTSC
Color space : YUV
Chroma subsampling : 4:2:0
Bit depth : 8 bits
Scan type : Interlaced
Scan order : Bottom Field First
Compression mode : Lossy
Bits/(Pixel*Frame) : 0.234
Stream size : 924 MiB (91%)

ID : 189 (0xBD)-128 (0x80)
Format : AC-3
Format/Info : Audio Coding 3
Mode extension : CM (complete main)
Muxing mode : DVD-Video
Duration : 53mn 16s
Bit rate mode : Constant
Bit rate : 192 Kbps
Channel(s) : 2 channels
Channel positions : Front: L R
Sampling rate : 48.0 KHz
Bit depth : 16 bits
Compression mode : Lossy
Delay relative to video : -329ms
Stream size : 73.2 MiB (7%)



Download link:
Links are Interchangeable - Single Extraction - Premium is support resumable
Direct Download

Tags: Universal, Andrey, Theory

Universal Andrey Lappa - Theory Of Yoga - Level 1 Fast Download via Rapidshare Hotfile Fileserve Filesonic Megaupload, Universal Andrey Lappa - Theory Of Yoga - Level 1 Torrents and Emule Download or anything related.
Dear visitor, you went to website as unregistered user.
We encourage you to Register or Login to website under your name.

Add comments

Enter Code: *