Information of news
 (Votes #: 0)

The Basics Of Close-Up Photography with Bob Guiliani

Category: Tutorial

Download Now

The Basics Of Close-Up Photography with Bob Guiliani
2xDVDRip | English | AVI | 512 x 384 | XviD ~1805 kbps | MP3 ~108 Kbps | 48.0 KHz | 2 channels | 01:54:25 | 1.36 GB
Genre: eLearning Video / Photographing

This 2 DVD video set is nearly two full hours of in the field study of close-up and macro photography by master photographer and teacher Bob Guiliani. Bob spends much time reviewing the equipment needed for successful close-up and macro photography. He also examines the elements involved in creating elegant portraiture of flowers. (Which you could turn into beautiful art prints) You will learn many technical and practical tips from selecting the proper camera angle to creating perfect lighting on every exposure in all kinds of lighting situations.
Other topics include:

* When to use a flash
* How & where to position the flash
* When to use tripod
* Hand held examples are created
* What time of day is best
* What to do when it gets windy
* When to use a polarizing filter
* How to create a small hand held reflector - FREE
* Background selection
* How to establish proper camera angle and lens selection

This presentation is jam packed with tips and ideas and is entirely filmed on location. Bob walks you through the woods in search of the perfect flower to photograph. Come along as Bob points out plants that are so small that you would never see them unless you were really looking. Discover what you are missing in life and get it in front of your camera. Even if you're a seasoned veteran this training film is a first class refresher course for creating fine art macro portraits. You will find yourself re-energized with your craft or profession. Re-discover your photography passion with the "Basics of Close-up Photography". If you love flowers, find out how to photograph them for future crafting projects.

Bob Guiliani and his wife, Linda, are owners of Guys & Dolls Photography portrait studio in Clare, MI. His portrait and nature photographs have received national, state, and local awards. He prints all of his work himself, for the studio and his nature art. His capability of capturing the beauty of the world through the camera lens has created artistic prints that have been displayed in art galleries and the walls of businesses and homes.

He has given programs to Professional Photographic Organizations in the U.S. and Canada and to various other groups such as: Michigan Audubon, Sierra Club, Garden Clubs & 4-H Groups. Bob was selected as one of 30 photographers to photograph Michigan during a 24 hour period for a book in conjunction with the Sesquicentennial, has been commissioned to do limited edition prints for various organizations, and has had his images published in various magazines. He teaches photography at Mid-Michigan Community College, offers workshops on nature photography, does guest lectures, travelogues, and has been on TV talk shows. He is a Master Photographer, Photographic Craftsman, nationally certified, and holds a BA and MA in chemistry.

Complete name : BobGuilianiTheBasicsOfClose-UpPhotography1.avi
Format : AVI
Format/Info : Audio Video Interleave
File size : 699 MiB
Duration : 49mn 35s
Overall bit rate mode : Variable
Overall bit rate : 1 972 Kbps
Writing application : VirtualDubMod (build 2178/release)
Writing library : VirtualDubMod build 2178/release

ID : 0
Format : MPEG-4 Visual
Format profile : Advanced [email protected]
Format settings, BVOP : 1
Format settings, QPel : No
Format settings, GMC : No warppoints
Format settings, Matrix : Custom
Codec ID : XVID
Codec ID/Hint : XviD
Duration : 49mn 35s
Bit rate : 1 850 Kbps
Width : 512 pixels
Height : 384 pixels
Display aspect ratio : 4:3
Frame rate : 29.970 fps
Color space : YUV
Chroma subsampling : 4:2:0
Bit depth : 8 bits
Scan type : Progressive
Compression mode : Lossy
Bits/(Pixel*Frame) : 0.314
Stream size : 656 MiB (94%)
Writing library : XviD 1.2.0.dev47 (UTC 2006-11-01)

ID : 1
Format : MPEG Audio
Format version : Version 1
Format profile : Layer 3
Mode : Joint stereo
Mode extension : MS Stereo
Codec ID : 55
Codec ID/Hint : MP3
Duration : 49mn 35s
Bit rate mode : Variable
Bit rate : 108 Kbps
Nominal bit rate : 128 Kbps
Channel(s) : 2 channels
Sampling rate : 48.0 KHz
Compression mode : Lossy
Stream size : 38.2 MiB (5%)
Alignment : Aligned on interleaves
Interleave, duration : 24 ms (0.72 video frame)
Interleave, preload duration : 567 ms
Writing library : LAME3.97
Encoding settings : -m j -V 4 -q 2 -lowpass 17 --abr 128


Download link:
Links are Interchangeable - Single Extraction - Premium is support resumable
Direct Download

Tags: Basics, Photography, Guiliani

The Basics Of Close-Up Photography with Bob Guiliani Fast Download via Rapidshare Hotfile Fileserve Filesonic Megaupload, The Basics Of Close-Up Photography with Bob Guiliani Torrents and Emule Download or anything related.
Dear visitor, you went to website as unregistered user.
We encourage you to Register or Login to website under your name.

Add comments

Enter Code: *