Information of news
 (Votes #: 0)

Josie Gibson's 21 Day Fat Burn

Category: Tutorial

Download Now

http://i70.fastpic.ru/big/2015/1011/63/051236b139d91dd3de6b60613176e863.jpg

Josie Gibson's 21 Day Fat Burn
DVDRip | English | MP4 | 720 x 576 | AVC ~1818 kbps | 25 fps
AAC | 160 Kbps | 48.0 KHz | 2 channels | 1h 21mn | 1.13 GB
Genre: eLearning Video / Fitness

Welcome to my brand new fitness workout - the 21 Day Fat Burn! I've lost over 6 stone so you could say I've become a bit of a weight loss expert. Keeping fit and healthy has become such a massive part of my life that I am now a qualified personal trainer! Within my new programme you get three workouts each using different energy systems designed to raise your metabolic rate, build up muscle... and burn fat. At the end, there is a fourth and final workout designed to test how you're improving each week. This is my Fitness Test. After just 21 days, if you follow the regime, my Fitness Test will show you just how far you've come and I know you'll be delighted with the results.
Get your friends and family involved, challenge each other. It's amazing how fit and strong you'll become whilst seeing your waistline drop! Good luck!!! Josie xx
General
Complete name : 21 Day Fat Burn.mp4
Format : MPEG-4
Format profile : Base Media / Version 2
Codec ID : mp42
File size : 1.13 GiB
Duration : 1h 21mn
Overall bit rate mode : Variable
Overall bit rate : 1 984 Kbps
Encoded date : UTC 2036-02-06 06:28:16
Tagged date : UTC 2036-02-06 06:28:16
Writing application : HandBrake 0.10.2 2015060900

Video
ID : 1
Format : AVC
Format/Info : Advanced Video Codec
Format profile : [email protected]
Format settings, CABAC : Yes
Format settings, ReFrames : 4 frames
Codec ID : avc1
Codec ID/Info : Advanced Video Coding
Duration : 1h 21mn
Bit rate : 1 818 Kbps
Width : 720 pixels
Height : 576 pixels
Display aspect ratio : 16:9
Frame rate mode : Constant
Frame rate : 25.000 fps
Standard : PAL
Color space : YUV
Chroma subsampling : 4:2:0
Bit depth : 8 bits
Scan type : Progressive
Bits/(Pixel*Frame) : 0.175
Stream size : 1.04 GiB (92%)
Writing library : x264 core 142 r2479 dd79a61
Encoding settings : cabac=1 / ref=1 / deblock=1:0:0 / analyse=0x1:0x111 / me=hex / subme=2 / psy=1 / psy_rd=1.00:0.00 / mixed_ref=0 / me_range=16 / chroma_me=1 / trellis=0 / 8x8dct=0 / cqm=0 / deadzone=21,11 / fast_pskip=1 / chroma_qp_offset=0 / threads=12 / lookahead_threads=4 / sliced_threads=0 / nr=0 / decimate=1 / interlaced=0 / bluray_compat=0 / constrained_intra=0 / bframes=3 / b_pyramid=2 / b_adapt=1 / b_bias=0 / direct=1 / weightb=1 / open_gop=0 / weightp=1 / keyint=250 / keyint_min=25 / scenecut=40 / intra_refresh=0 / rc_lookahead=10 / rc=2pass / mbtree=1 / bitrate=1818 / ratetol=1.0 / qcomp=0.60 / qpmin=0 / qpmax=69 / qpstep=4 / cplxblur=20.0 / qblur=0.5 / vbv_maxrate=20000 / vbv_bufsize=25000 / nal_hrd=none / filler=0 / ip_ratio=1.40 / aq=1:1.00
Encoded date : UTC 2036-02-06 06:28:16
Tagged date : UTC 2036-02-06 06:28:16
Color primaries : BT.470-6 System B, BT.470-6 System G, BT.601-6 625, BT.1358 625, BT.1700 625 PAL, BT.1700 625 SECAM
Transfer characteristics : BT.709-5, BT.1361
Matrix coefficients : BT.601-6 525, BT.1358 525, BT.1700 NTSC, SMPTE 170M

Audio
ID : 2
Format : AAC
Format/Info : Advanced Audio Codec
Format profile : LC
Codec ID : 40
Duration : 1h 21mn
Bit rate mode : Variable
Bit rate : 160 Kbps
Channel(s) : 2 channels
Channel positions : Front: L R
Sampling rate : 48.0 KHz
Compression mode : Lossy
Stream size : 93.8 MiB (8%)
Title : Stereo
Language : English
Encoded date : UTC 2036-02-06 06:28:16
Tagged date : UTC 2036-02-06 06:28:16

Text
ID : 3
Format : Apple text
Codec ID : text
Duration : 1h 21mn
Bit rate mode : Variable
Bit rate : 0
Stream size : 303 Bytes (0%)
Language : English
Encoded date : UTC 2036-02-06 06:28:16
Tagged date : UTC 2036-02-06 06:28:16

Screenshots

http://i70.fastpic.ru/big/2015/1011/ec/2e758d242e55be2bb318b69da2d920ec.jpg

http://i67.fastpic.ru/big/2015/1011/7f/5b339a32e7196784ca0b04403e7bb47f.jpg

http://i72.fastpic.ru/big/2015/1011/7a/01eef73b381c44bc889c07fa3051af7a.jpg

http://i69.fastpic.ru/big/2015/1011/70/a64aa69eac9d5673fffbca8a1ef9be70.jpg

http://i71.fastpic.ru/big/2015/1011/27/ce0bae6ec92a72fcdd0f34cc94395e27.jpg


Download link:
Links are Interchangeable - Single Extraction - Premium is support resumable
Direct Download


Tags: Gibson


Josie Gibson's 21 Day Fat Burn Fast Download via Rapidshare Hotfile Fileserve Filesonic Megaupload, Josie Gibson's 21 Day Fat Burn Torrents and Emule Download or anything related.
Dear visitor, you went to website as unregistered user.
We encourage you to Register or Login to website under your name.

Add comments

Name:*
E-Mail:*
Comments:
Enter Code: *