Information of news
 (Votes #: 0)

Jeanne Kolenda - Base Income Formula

Category: Tutorial

Download Now

Jeanne Kolenda - Base Income Formula

Jeanne Kolenda - Base Income Formula
WEBRip | English | MP4 + PDF Guides + work files | 768 x 480 | AVC ~232 kbps | 30 fps
AAC | 126 Kbps | 44.1 KHz | 2 channels | ~10 hours | 1.73 GB
Genre: eLearning Video / Small Business, Entrepreneurs (2015)

"Everything you need to launch a successful local marketing agency - all under one roof!"

Preparation and Research
Google My Business - Prepare and Create profiles
Directory Sites, Coupons, and reviews
How to's in Hosting, Development, Opt-Ins, Plug ins and Webmaster tools
Sales Training, Networking, and Pricing
Traffic Generators, Craigslist, Social Media, Citations, and Press Releases
Resources like PLR, Themes, Plug-Ins, and MORE!

COST: $297.00
More Info: homepage/


also You can look my other last:

General
Complete name : 7.On Page Optimization-1.mp4
Format
: MPEG-4
Format profile : Base Media / Version 2
Codec ID
: mp42
File size
: 38.1 MiB
Duration
: 14mn 45s
Overall bit rate mode : Variable
Overall bit rate : 361 Kbps
Movie name
: On Page Optimization
Encoded date : UTC 2015-04-01 20:57:28
Tagged date
: UTC 2015-04-01 20:57:28

Video
ID : 1
Format
: AVC
Format/Info
: Advanced Video Codec
Format profile : [email protected]
Format settings, CABAC : No
Format settings, ReFrames : 3 frames
Codec ID
: avc1
Codec ID/Info : Advanced Video Coding
Duration
: 14mn 45s
Source duration : 14mn 45s
Bit rate mode : Variable
Bit rate
: 232 Kbps
Width
: 768 pixels
Height
: 480 pixels
Display aspect ratio : 1.600
Frame rate mode : Variable
Frame rate
: 30.000 fps
Minimum frame rate

: 30.000 fps
Maximum frame rate

: 30.030 fps
Standard
: NTSC
Color space
: YUV
Chroma subsampling

: 4:2:0
Bit depth
: 8 bits
Scan type
: Progressive
Bits/(Pixel*Frame)

: 0.021
Stream size
: 24.5 MiB (64%)
Source stream size

: 24.5 MiB
Language
: English
Encoded date : UTC 2015-04-01 20:57:28
Tagged date
: UTC 2015-04-01 20:57:28

Audio
ID : 2
Format
: AAC
Format/Info
: Advanced Audio Codec
Format profile : LC
Codec ID
: 40
Duration
: 14mn 45s
Source duration : 14mn 45s
Bit rate mode : Variable
Bit rate
: 126 Kbps
Maximum bit rate : 166 Kbps
Channel(s)
: 2 channels
Channel positions: Front: L R
Sampling rate : 44.1 KHz
Compression mode : Lossy
Stream size
: 13.3 MiB (35%)
Source stream size

: 13.3 MiB
Language
: English
Encoded date : UTC 2015-04-01 20:57:28
Tagged date
: UTC 2015-04-01 20:57:28

Screenshots

Jeanne Kolenda - Base Income Formula

Jeanne Kolenda - Base Income Formula

Jeanne Kolenda - Base Income Formula

Jeanne Kolenda - Base Income Formula


DOWNLOAD LINKS:
Buy Premium To Support Me & Get Resumable Support & Max Speed


Links are Interchangeable - No Password - Single Extraction
Direct Download


Tags: Jeanne, Kolenda, Income, Formula


Jeanne Kolenda - Base Income Formula Fast Download via Rapidshare Hotfile Fileserve Filesonic Megaupload, Jeanne Kolenda - Base Income Formula Torrents and Emule Download or anything related.
Dear visitor, you went to website as unregistered user.
We encourage you to Register or Login to website under your name.

Add comments

Name:*
E-Mail:*
Comments:
Enter Code: *