Information of news
 (Votes #: 0)

FRET 12 - The Sound & The Story with Troy Stetina

Category: Tutorial

Download Now

http://i69.fastpic.ru/big/2015/1006/f7/d609462d9b00d12c25f97f1cdf5ba4f7.jpg

FRET 12 - The Sound & The Story with Troy Stetina
DVD9 in ISO-image | English | VIDEO_TS + PDF tabs | 720 x 480 | MPEG2 ~4508 Kbps | 23.976 fps
AC-3 | 256 Kbps | 48.0 KHz | 2 channels | 03:37:08 | 7.45 GB
Genre: eLearning Video / Guitar lesson (2015)

Troy Stetina rose to prominence in the 80s and has become a massive inspiration for guitarists from all walks of life, all around the globe. Troy found his calling in educating, with hundreds of instructional teachings ranging from musical recordings to DVDs to live clinics. He quickly became acknowledged for his ability to take very concepts ranging from the obscure and advanced, to the most basic and fundamental; and turn them into something that was both accessible and understandable to musicians everywhere. Music educators, rock stars, and students all agree, that Troy has been able to teach and inspire a countless number of guitar players around the world with both his music and teachings.
General
Complete name : VTS_01_5.VOB
Format : MPEG-PS
File size : 1 024 MiB
Duration : 29mn 26s
Overall bit rate mode : Variable
Overall bit rate : 4 861 Kbps

Video
ID : 224 (0xE0)
Format : MPEG Video
Format version : Version 2
Format profile : [email protected]
Format settings, BVOP : Yes
Format settings, Matrix : Default
Format settings, GOP : M=3, N=12
Duration : 29mn 26s
Bit rate mode : Variable
Bit rate : 4 508 Kbps
Maximum bit rate : 7 500 Kbps
Width : 720 pixels
Height : 480 pixels
Display aspect ratio : 16:9
Frame rate : 23.976 fps
Standard : NTSC
Color space : YUV
Chroma subsampling : 4:2:0
Bit depth : 8 bits
Scan type : Progressive
Scan order : 2:3 Pulldown
Compression mode : Lossy
Bits/(Pixel*Frame) : 0.544
Stream size : 949 MiB (93%)

Audio
ID : 189 (0xBD)-128 (0x80)
Format : AC-3
Format/Info : Audio Coding 3
Mode extension : CM (complete main)
Muxing mode : DVD-Video
Duration : 29mn 26s
Bit rate mode : Constant
Bit rate : 256 Kbps
Channel(s) : 2 channels
Channel positions : Front: L R
Sampling rate : 48.0 KHz
Bit depth : 16 bits
Compression mode : Lossy
Delay relative to video : -710ms
Stream size : 53.9 MiB (5%)

Menu

Screenshots

http://i71.fastpic.ru/big/2015/1006/09/94b8baf4d5f8d42f21b292ee53de0909.jpg

http://i72.fastpic.ru/big/2015/1006/de/51f2519191613ffcbcd16c2cf91792de.jpg

http://i69.fastpic.ru/big/2015/1006/ec/e3df6a7e4b19842be72781dbbed290ec.jpg

http://i72.fastpic.ru/big/2015/1006/d2/cc7a58820909d5854c9779372dd457d2.jpg

http://i69.fastpic.ru/big/2015/1006/4f/1698173526c9a428df366d61d4e1474f.jpg

http://i69.fastpic.ru/big/2015/1006/62/33474f087b6e27a6e1946361c2781462.jpg


Download link:
Rapidgator:
op9yh.FRET.12..The.Sound..The.Story.with.Troy.Stetina.part1.rar.html
op9yh.FRET.12..The.Sound..The.Story.with.Troy.Stetina.part2.rar.html
op9yh.FRET.12..The.Sound..The.Story.with.Troy.Stetina.part3.rar.html
op9yh.FRET.12..The.Sound..The.Story.with.Troy.Stetina.part4.rar.html
op9yh.FRET.12..The.Sound..The.Story.with.Troy.Stetina.part5.rar.html
op9yh.FRET.12..The.Sound..The.Story.with.Troy.Stetina.part6.rar.html
op9yh.FRET.12..The.Sound..The.Story.with.Troy.Stetina.part7.rar.html
op9yh.FRET.12..The.Sound..The.Story.with.Troy.Stetina.part8.rar.html

Nitroflare:
op9yh.FRET.12..The.Sound..The.Story.with.Troy.Stetina.part1.rar
op9yh.FRET.12..The.Sound..The.Story.with.Troy.Stetina.part2.rar
op9yh.FRET.12..The.Sound..The.Story.with.Troy.Stetina.part3.rar
op9yh.FRET.12..The.Sound..The.Story.with.Troy.Stetina.part4.rar
op9yh.FRET.12..The.Sound..The.Story.with.Troy.Stetina.part5.rar
op9yh.FRET.12..The.Sound..The.Story.with.Troy.Stetina.part6.rar
op9yh.FRET.12..The.Sound..The.Story.with.Troy.Stetina.part7.rar
op9yh.FRET.12..The.Sound..The.Story.with.Troy.Stetina.part8.rar

Uploadable.ch:
op9yh.FRET.12..The.Sound..The.Story.with.Troy.Stetina.part1.rar
op9yh.FRET.12..The.Sound..The.Story.with.Troy.Stetina.part2.rar
op9yh.FRET.12..The.Sound..The.Story.with.Troy.Stetina.part3.rar
op9yh.FRET.12..The.Sound..The.Story.with.Troy.Stetina.part4.rar
op9yh.FRET.12..The.Sound..The.Story.with.Troy.Stetina.part5.rar
op9yh.FRET.12..The.Sound..The.Story.with.Troy.Stetina.part6.rar
op9yh.FRET.12..The.Sound..The.Story.with.Troy.Stetina.part7.rar
op9yh.FRET.12..The.Sound..The.Story.with.Troy.Stetina.part8.rar
Links are Interchangeable - Single Extraction - Premium is support resumable
Direct Download


Tags: Stetina


FRET 12 - The Sound & The Story with Troy Stetina Fast Download via Rapidshare Hotfile Fileserve Filesonic Megaupload, FRET 12 - The Sound & The Story with Troy Stetina Torrents and Emule Download or anything related.
Dear visitor, you went to website as unregistered user.
We encourage you to Register or Login to website under your name.

Add comments

Name:*
E-Mail:*
Comments:
Enter Code: *