Information of news
 (Votes #: 0)

The Art of Photography: The Specialty of Not Specializing with Rick Sammon and Mia McCormick

Category: Tutorial

Download Now

http://i71.fastpic.ru/big/2015/0916/42/c0c5b2f13b8c941f41d267c3b4d06042.jpg

The Art of Photography: The Specialty of Not Specializing
WEBRip | English | MP4 | 1280 x 720 | AVC ~1800 kbps | 29.970 fps
AAC | 64 Kbps | 44.1 KHz | 1 channel | 00:53:31 | 716.2 MB
Genre: Video Tutorial / Photographing

Join Mia McCormick for a fun and inspirational conversation with photographer and author Rick Sammon. Rick's positive attitude and love of photography has led him all over the world pursuing the life he's always wanted to live. If you can set your goals, create a plan, and never give up, you may just find you are doing the same.
General
Complete name : 1. On Having a Plan.mp4
Format : MPEG-4
Format profile : Base Media
Codec ID : isom
File size : 195 MiB
Duration : 14mn 33s
Overall bit rate : 1 869 Kbps
Performer : Kelby Media Group
Encoded date : UTC 2013-04-22 19:53:58
Tagged date : UTC 2013-04-22 19:53:58
Writing application : Lavf53.32.100
Copyright : kelbymediagroup.com
Comment : Copyright Kelby Media Group

Video
ID : 1
Format : AVC
Format/Info : Advanced Video Codec
Format profile : [email protected]
Format settings, CABAC : Yes
Format settings, ReFrames : 3 frames
Codec ID : avc1
Codec ID/Info : Advanced Video Coding
Duration : 14mn 33s
Bit rate : 1 800 Kbps
Width : 1 280 pixels
Height : 720 pixels
Display aspect ratio : 16:9
Frame rate mode : Constant
Frame rate : 29.970 fps
Color space : YUV
Chroma subsampling : 4:2:0
Bit depth : 8 bits
Scan type : Progressive
Bits/(Pixel*Frame) : 0.065
Stream size : 187 MiB (96%)
Writing library : x264 core 120
Encoding settings : cabac=1 / ref=3 / deblock=1:0:0 / analyse=0x1:0x111 / me=hex / subme=6 / psy=0 / mixed_ref=0 / me_range=16 / chroma_me=1 / trellis=1 / 8x8dct=0 / cqm=0 / deadzone=21,11 / fast_pskip=1 / chroma_qp_offset=0 / threads=48 / sliced_threads=0 / nr=0 / decimate=1 / interlaced=0 / bluray_compat=0 / constrained_intra=0 / bframes=3 / b_pyramid=0 / b_adapt=1 / b_bias=0 / direct=1 / weightb=0 / open_gop=0 / weightp=2 / keyint=150 / keyint_min=76 / scenecut=0 / intra_refresh=0 / rc=2pass / mbtree=0 / bitrate=1800 / ratetol=1.0 / qcomp=0.60 / qpmin=10 / qpmax=51 / qpstep=4 / cplxblur=20.0 / qblur=0.5 / ip_ratio=1.40 / pb_ratio=1.30 / aq=1:1.00
Language : English
Encoded date : UTC 2013-04-22 19:53:58
Tagged date : UTC 2013-04-22 19:53:58

Audio
ID : 2
Format : AAC
Format/Info : Advanced Audio Codec
Format profile : LC
Codec ID : 40
Duration : 14mn 33s
Bit rate mode : Constant
Bit rate : 64.0 Kbps
Channel(s) : 1 channel
Channel positions : Front: C
Sampling rate : 44.1 KHz
Compression mode : Lossy
Stream size : 6.66 MiB (3%)
Language : English
Encoded date : UTC 2013-04-22 19:53:58
Tagged date : UTC 2013-04-22 19:53:58

Screenshots

http://i67.fastpic.ru/big/2015/0916/e0/4b5bf770f2ed7798e0c94917cc16c4e0.jpg

http://i66.fastpic.ru/big/2015/0916/73/a3d8c0f73e30dc9addf366eb45d84173.jpg

http://i65.fastpic.ru/big/2015/0916/6b/21dc3598bdd67d16d564f2574dbfd26b.jpg

http://i71.fastpic.ru/big/2015/0916/42/250576b7c396e975456c57bb96956242.jpg

http://i67.fastpic.ru/big/2015/0916/97/41231b64d4ddfa6a2fb42630fd85be97.jpg


Download link:
Links are Interchangeable - Single Extraction - Premium is support resumable
Direct Download


Tags: Photography, Specialty, Specializing, Sammon, McCormick


The Art of Photography: The Specialty of Not Specializing with Rick Sammon and Mia McCormick Fast Download via Rapidshare Hotfile Fileserve Filesonic Megaupload, The Art of Photography: The Specialty of Not Specializing with Rick Sammon and Mia McCormick Torrents and Emule Download or anything related.
Dear visitor, you went to website as unregistered user.
We encourage you to Register or Login to website under your name.

Add comments

Name:*
E-Mail:*
Comments:
Enter Code: *