Information of news
 (Votes #: 0)

Dan Erlewine's: Maintenance & Setup for Steel-string Acoustic Guitars - Vol. 2

Category: Tutorial

Download Now

http://i68.fastpic.ru/big/2015/0901/0d/6c35621f63137abf633e156f9e5c300d.jpg

Dan Erlewine's: Maintenance & Setup for Steel-string Acoustic Guitars - Vol. 2
DVD5 in ISO-image | English | VIDEO_TS | 720 x 480 | MPEG2 ~4000 Kbps | 29.970 fps
AC-3 | 224 Kbps | 48.0 KHz | 2 channels | ~2 hours | 3.88 GB
Genre: eLearning Video / Guitar lesson

Maintenance & Setup for Steel-string Acoustic Guitars Vol. 2 "If acoustic setup makes you nervous, this DVD will give you the information and confidence you need." -- Dan The focus of this DVD: Evaluating the condition of your acoustic or resophonic guitar, and getting the most out of it.
Information covered
Flattop Acoustic Guitars (cont.):
Modern acoustic/electric amplification, effects, sound equipment and guitar setup featuring Bill Dutcher
Cleaning a dirty guitar
A "microbuilder's" approach to setting up new guitars (with Bryan Galloup)
Archtop Setup:
Setting up a 1957 Gibson L-5 archtop jazz guitar
Fitting an archtop bridge
National and other brands of metal-bodied guitars:
Disassembly, cleanup, and reassembly
Getting the proper down-pressure on the cone
Shaping the saddle
Custom tone options
Common action settings
Wood-bodied resophonics:
(Guitars played on your lap, Dobro-style, with a high nut and saddle)
Disassembly, cleanup, and reassembly
Seating the cone in the well
Fitting the spider bridge to the cone
Cutting the bridge saddle
Common action settings
Pro setups:
Understand the setups of these professional players, and hear the results
Modern acoustic/electric amplification, effects, sound equipment and guitar setup featuring Bill Dutcher
Bluegrass guitar setups with Todd Sams
Playing a metal resophonic finger-style (no slide) with Del Rey - the "Memphis Minnie" of the new millennium. Del understands her setup, and describes it well
"Lap-steel" setup with Kelly Joe Phelps: a new approach to playing slide on a flattop guitar set up for slide (different than the Dobro)
Preferred setup for for "big band" chord backup with Bob Montalto

General
Complete name : VTS_01_3.VOB
Format : MPEG-PS
File size : 1 023 MiB
Duration : 33mn 4s
Overall bit rate : 4 323 Kbps

Video
ID : 224 (0xE0)
Format : MPEG Video
Format version : Version 2
Format profile : [email protected]
Format settings, BVOP : Yes
Format settings, Matrix : Custom
Format settings, GOP : M=3, N=15
Duration : 33mn 4s
Bit rate : 4 000 Kbps
Width : 720 pixels
Height : 480 pixels
Display aspect ratio : 4:3
Frame rate : 29.970 fps
Standard : NTSC
Color space : YUV
Chroma subsampling : 4:2:0
Bit depth : 8 bits
Scan type : Interlaced
Scan order : Top Field First
Compression mode : Lossy
Bits/(Pixel*Frame) : 0.386
Stream size : 949 MiB (93%)

Audio
ID : 189 (0xBD)-128 (0x80)
Format : AC-3
Format/Info : Audio Coding 3
Mode extension : CM (complete main)
Muxing mode : DVD-Video
Duration : 33mn 4s
Bit rate mode : Constant
Bit rate : 224 Kbps
Channel(s) : 2 channels
Channel positions : Front: L R
Sampling rate : 48.0 KHz
Bit depth : 16 bits
Compression mode : Lossy
Delay relative to video : -380ms
Stream size : 53.0 MiB (5%)

Menu

Screenshots

http://i65.fastpic.ru/big/2015/0901/70/f47bdd2ef96e98f073a0b4148cd21570.jpg

http://i69.fastpic.ru/big/2015/0901/7d/37684f3efca00efdc1761b323979d17d.jpg

http://i69.fastpic.ru/big/2015/0901/bc/894406cd2835bead57317b5eb52aaebc.jpg

http://i71.fastpic.ru/big/2015/0901/ec/8e0258eb017653dc4b53cd15a23b67ec.jpg

http://i65.fastpic.ru/big/2015/0901/16/54a9cee7ed2899da50a81debf735f316.jpg

http://i68.fastpic.ru/big/2015/0901/84/b50a0a31d8bea43ff8a906b206e79f84.jpg


Download link:
Links are Interchangeable - Single Extraction - Premium is support resumable
Direct Download


Tags: Erlewine, Maintenance, string, Acoustic, Guitars


Dan Erlewine's: Maintenance & Setup for Steel-string Acoustic Guitars - Vol. 2 Fast Download via Rapidshare Hotfile Fileserve Filesonic Megaupload, Dan Erlewine's: Maintenance & Setup for Steel-string Acoustic Guitars - Vol. 2 Torrents and Emule Download or anything related.
Dear visitor, you went to website as unregistered user.
We encourage you to Register or Login to website under your name.

Add comments

Name:*
E-Mail:*
Comments:
Enter Code: *