Information of news
 (Votes #: 0)

Switching from Pro Tools to Studio One 3 (2015)

Category: Tutorial

Download Now

http://i70.fastpic.ru/big/2015/0826/ce/260c0732de7566d2d5d9de23ce28a4ce.jpg

Switching from Pro Tools to Studio One 3 (2015)
WEBRip | English | MP4 | 1600 x 900 | AVC ~387 kbps | 30 fps
AAC | 254 Kbps | 44.1 KHz | 2 channels | Subs: English | 00:51:00 | 237.7 MB
Genre: Video Tutorial / Sound Processing (2015)

Studio One 3 is hot, fully featured, & getting a ton of buzz. If you're a Pro Tools user who's thinking of making the switch to Studio One 3, Pro Tools guru Eli Krantzberg shows you what you'll need to know to get up & running, as well as convert your Pro Tools mind into the ways of Studio One 3. Eli starts with the basics, explaining How to work with the Start Page & do your Basic Setup. From there, he explores differences in the way Audio Tracks, Monitoring, & Recording are h&led. Next, Eli helps you underst& how to use Studio One 3's powerful Instrument Tracks.
With the basics covered, Eli now takes you into more advanced topics, like how Studio One 3 differs from Pro Tools with regard to Zooming, Editing, & working with Effects. The final three videos all dive into Mixing in Studio One 3 vs. Pro Tools, with a separate video on the Console, Sends & Effects Channels, & Busses & Bouncing.
If you're a Pro Tools user who is curious about Studio One 3, or you're a Pro Tools user who already made the switch & wants to get up & running fast, don't miss "Switching from Pro Tools to Studio One 3!"

01 Start Page & Setup
01 Audio Tracks
03 Monitoring & Recording
04 Basic Transport & Navigation Functions
05 Instrument Tracks
06 Zoom Comm&s
07 Basic Editing Tasks Pt. 1
08 Basic Editing Tasks Pt. 2
09 Working with Effects
10 The Console
11 Sends & FX Channels
12 Busses & Bouncing


General
Complete name : 03monitoringrecording.mp4
Format : MPEG-4
Format profile : Base Media
Codec ID : isom
File size : 14.7 MiB
Duration : 3mn 9s
Overall bit rate : 650 Kbps
Movie name : Monitoring & Recording
Album/Performer : Eli Krantzberg
Part/Position : 1
Part/Total : 1
Track name/Position : 3
Track name/Total : 12
Performer : Switching from Pro Tools to Studio One 3
Genre : Video Training
Writing application : Lavf56.25.101
Copyright : Groove 3 Inc.
desc : Learn how to toggle software monitoring on/of, how to record arm tracks, & how to setup the metronome, precount & preroll options.
ldes : Learn how to toggle software monitoring on/of, how to record arm tracks, & how to setup the metronome, precount & preroll options.
tvsh : Switching from Pro Tools to Studio One 3
tvnn : www.groove3.com
tves : 3
tvsn : 0
stik : 10
hdvd : 0

Video
ID : 1
Format : AVC
Format/Info : Advanced Video Codec
Format profile : [email protected]
Format settings, CABAC : Yes
Format settings, ReFrames : 4 frames
Codec ID : avc1
Codec ID/Info : Advanced Video Coding
Duration : 3mn 9s
Bit rate : 387 Kbps
Width : 1 600 pixels
Height : 900 pixels
Display aspect ratio : 16:9
Frame rate mode : Variable
Frame rate : 30.000 fps
Minimum frame rate : 15.000 fps
Maximum frame rate : 30.000 fps
Color space : YUV
Chroma subsampling : 4:2:0
Bit depth : 8 bits
Scan type : Progressive
Bits/(Pixel*Frame) : 0.009
Stream size : 8.78 MiB (60%)
Writing library : x264 core 142 r2479 dd79a61
Encoding settings : cabac=1 / ref=1 / deblock=1:0:0 / analyse=0x1:0x111 / me=hex / subme=2 / psy=1 / psy_rd=1.00:0.00 / mixed_ref=0 / me_range=16 / chroma_me=1 / trellis=0 / 8x8dct=0 / cqm=0 / deadzone=21,11 / fast_pskip=1 / chroma_qp_offset=0 / threads=12 / lookahead_threads=4 / sliced_threads=0 / nr=0 / decimate=1 / interlaced=0 / bluray_compat=0 / constrained_intra=0 / bframes=3 / b_pyramid=2 / b_adapt=1 / b_bias=0 / direct=1 / weightb=1 / open_gop=0 / weightp=1 / keyint=300 / keyint_min=30 / scenecut=40 / intra_refresh=0 / rc_lookahead=10 / rc=2pass / mbtree=1 / bitrate=387 / ratetol=1.0 / qcomp=0.60 / qpmin=0 / qpmax=69 / qpstep=4 / cplxblur=20.0 / qblur=0.5 / vbv_maxrate=20000 / vbv_bufsize=25000 / nal_hrd=none / filler=0 / ip_ratio=1.40 / aq=1:1.00
Color primaries : BT.709-5, BT.1361, IEC 61966-2-4, SMPTE RP177
Transfer characteristics : BT.709-5, BT.1361
Matrix coefficients : BT.709-5, BT.1361, IEC 61966-2-4 709, SMPTE RP177

Audio
ID : 2
Format : AAC
Format/Info : Advanced Audio Codec
Format profile : LC
Codec ID : 40
Duration : 3mn 9s
Bit rate mode : Constant
Bit rate : 254 Kbps
Channel(s) : 2 channels
Channel positions : Front: L R
Sampling rate : 44.1 KHz
Compression mode : Lossy
Stream size : 5.75 MiB (39%)
Language : English

Text
ID : 3
Format : Apple text
Codec ID : text
Duration : 3mn 9s
Bit rate : 1 bps
Stream size : 23.0 Bytes (0%)
Language : English

Menu
00:00:00.000 : Chapter 1

Screenshots

http://i68.fastpic.ru/big/2015/0826/8f/e4e15a38bb623596863b97262f51d38f.jpg

http://i65.fastpic.ru/big/2015/0826/ba/daef80d4718089f711d254e1de70c2ba.jpg

http://i67.fastpic.ru/big/2015/0826/cc/705343120a8c5d694e2af43e58fadccc.jpg

http://i69.fastpic.ru/big/2015/0826/dc/fda0f4dc2d319a128fc8d0591763bcdc.jpg

http://i67.fastpic.ru/big/2015/0826/1d/0db8911086aeab8850ef0c6eb417581d.jpg


Download link:
Links are Interchangeable - Single Extraction - Premium is support resumable
Direct Download


Tags: Switching, Studio


Switching from Pro Tools to Studio One 3 (2015) Fast Download via Rapidshare Hotfile Fileserve Filesonic Megaupload, Switching from Pro Tools to Studio One 3 (2015) Torrents and Emule Download or anything related.
Dear visitor, you went to website as unregistered user.
We encourage you to Register or Login to website under your name.

Add comments

Name:*
E-Mail:*
Comments:
Enter Code: *