Information of news
  • Views: 0
  • Author: god.sad
  • Date: 7-08-2015, 01:18
 (Votes #: 0)

Gemini Guitar - Blackened Atmospheres (2015)

Category: Tutorial

Download Now

Gemini Guitar - Blackened Atmospheres (2015)

Gemini Guitar - Blackened Atmospheres (2015)
DVDRip | English | MP4 + WAV jam tracks + PDF tabs | 1280 x 720 | AVC ~4003 Kbps | 25 fps
AAC | 192 Kbps | 48.0 KHz | 2 channels | 00:37:36 | 1.12 GB
Genre: eLearning Video / Guitar lesson (2015)

Prepare to take a stroll through the noisier side of metal in Blackened Atmospheres. This feature explores melancholy voicings and riff ideas in an atmospheric vein, starting with the basic foundation, then moving onto embellishments and positional variations.
As always, Corey breaks everything down in his customary style, ensuring students are given the tools necessary to learn and practice the material covered in an efficient manner.

Includes:
-Video lessons + performances of each example
-Drum and Bass track
-Drum track
-Guitar Pro and PDF transcriptions
-Scale diagrams

General
Complete name : Example 3 - Lesson.mp4
Format : MPEG-4
Format profile : Base Media / Version 2
Codec ID : mp42
File size : 163 MiB
Duration : 5mn 26s
Overall bit rate : 4 199 Kbps
Encoded date : UTC 2015-07-12 05:56:18
Tagged date : UTC 2015-07-12 05:56:18

Video
ID : 2
Format : AVC
Format/Info : Advanced Video Codec
Format profile : [email protected]
Format settings, CABAC : Yes
Format settings, ReFrames : 5 frames
Codec ID : avc1
Codec ID/Info : Advanced Video Coding
Duration : 5mn 26s
Bit rate mode : Variable
Bit rate : 4 003 Kbps
Width : 1 280 pixels
Height : 720 pixels
Display aspect ratio : 16:9
Frame rate mode : Constant
Frame rate : 25.000 fps
Standard : NTSC
Color space : YUV
Chroma subsampling : 4:2:0
Bit depth : 8 bits
Scan type : Progressive
Bits/(Pixel*Frame) : 0.174
Stream size : 156 MiB (95%)
Language : English
Encoded date : UTC 2015-07-12 05:56:18
Tagged date : UTC 2015-07-12 05:56:18

Audio
ID : 1
Format : AAC
Format/Info : Advanced Audio Codec
Format profile : LC
Codec ID : 40
Duration : 5mn 26s
Bit rate mode : Constant
Bit rate : 192 Kbps
Channel(s) : 2 channels
Channel positions : Front: L R
Sampling rate : 48.0 KHz
Compression mode : Lossy
Stream size : 7.47 MiB (5%)
Language : English
Encoded date : UTC 2015-07-12 05:56:18
Tagged date : UTC 2015-07-12 05:56:18

Screenshots

Gemini Guitar - Blackened Atmospheres (2015)

Gemini Guitar - Blackened Atmospheres (2015)


Download link:

Buy Premium From My LinksTo Support Me & Download with MaX SPeeD!

Direct Download


Tags: Gemini, Guitar, Blackened, Atmospheres


Gemini Guitar - Blackened Atmospheres (2015) Fast Download via Rapidshare Hotfile Fileserve Filesonic Megaupload, Gemini Guitar - Blackened Atmospheres (2015) Torrents and Emule Download or anything related.
Dear visitor, you went to website as unregistered user.
We encourage you to Register or Login to website under your name.

Add comments

Name:*
E-Mail:*
Comments:
Enter Code: *