Information of news
  • Views: 0
  • Author: god.sad
  • Date: 6-08-2015, 17:42
 (Votes #: 0)

Jam Track Central: 20 Dynamic Rock Fusion Licks with Jakub Zytecki (2015)

Category: Tutorial

Download Now

Jam Track Central: 20 Dynamic Rock Fusion Licks with Jakub Zytecki (2015)

Jam Track Central: 20 Dynamic Rock Fusion Licks with Jakub Zytecki
WEBRip | English | MP4 + MP3 jam tracks + PDF tabs | 1280 x 720 | AVC ~3934 Kbps | 24 fps
AAC | 192 Kbps | 48.0 KHz | 2 channels | ~1 hour | 435 MB
Genre: eLearning Video / Guitar lesson (2015)

Enhance Your Playing With These 20 Inspirational Rock Fusion Licks! Jakub's taking the world by storm and he certainly held nothing back when creating this incredible lick series! Combining his polished technique with inspirational flare, these are some of the most creative rock fusion licks around today.
Enhance Your Playing With These 20 Inspirational Rock Fusion Licks! Jakub's taking the world by storm and he certainly held nothing back when creating this incredible lick series! Combining his polished technique with inspirational flare, these are some of the most creative rock fusion licks around today.
Superimposition is a big element in how Zytecki achieves such an interesting and refreshing sound to his lines and it's a tricky concept to pull off. The general harmony to this track is a groovy G#m backing and Zytecki (like all of us), makes good use of pentatonics to get his rock vibe. This time however, he shows you how you can superimpose the sounds of Dorian, Mixolydian, Augmented arpeggios and Melodic/Harmonic minor tonalities (amongst others) onto the basic minor harmony. Fused with strategically placed chromatics, dissonant melodic colour notes, unexpected rhythmic measures and some wide interval phrases, this pack is going to spice up your Rock Fusion playing and show you exactly the kind of creativity required to make your playing sound unique.

This really is MUST LEARN material, if you want to increase your Rock Fusion chops and top up your own creative flare!
As ever, we have accurately transcribed every note and included the TAB/notation in the download, full backing tracks, audio solos and lick notes.

General
Complete name : jz_dynrockfusion_lick5.mp4
Format : MPEG-4
Format profile : Base Media / Version 2
Codec ID : mp42
File size : 8.57 MiB
Duration : 17s 375ms
Overall bit rate mode : Variable
Overall bit rate : 4 137 Kbps
Encoded date : UTC 2014-11-25 12:10:50
Tagged date : UTC 2014-11-25 12:10:50
©TIM : 00:00:00:00
©TSC : 24
©TSZ : 1

Video
ID : 1
Format : AVC
Format/Info : Advanced Video Codec
Format profile : [email protected]
Format settings, CABAC : Yes
Format settings, ReFrames : 3 frames
Codec ID : avc1
Codec ID/Info : Advanced Video Coding
Duration : 17s 375ms
Bit rate : 3 934 Kbps
Width : 1 280 pixels
Height : 720 pixels
Display aspect ratio : 16:9
Frame rate mode : Constant
Frame rate : 24.000 fps
Standard : NTSC
Color space : YUV
Chroma subsampling : 4:2:0
Bit depth : 8 bits
Scan type : Progressive
Bits/(Pixel*Frame) : 0.178
Stream size : 8.15 MiB (95%)
Language : English
Encoded date : UTC 2014-11-25 12:10:50
Tagged date : UTC 2014-11-25 12:10:50

Audio
ID : 2
Format : AAC
Format/Info : Advanced Audio Codec
Format profile : LC
Codec ID : 40
Duration : 17s 375ms
Source duration : 17s 429ms
Bit rate mode : Variable
Bit rate : 192 Kbps
Maximum bit rate : 281 Kbps
Channel(s) : 2 channels
Channel positions : Front: L R
Sampling rate : 48.0 KHz
Compression mode : Lossy
Stream size : 401 KiB (5%)
Source stream size : 403 KiB
Language : English
Encoded date : UTC 2014-11-25 12:10:50
Tagged date : UTC 2014-11-25 12:10:50

Screenshots

Jam Track Central: 20 Dynamic Rock Fusion Licks with Jakub Zytecki (2015)

Jam Track Central: 20 Dynamic Rock Fusion Licks with Jakub Zytecki (2015)

Download link:

Buy Premium From My LinksTo Support Me & Download with MaX SPeeD!

Direct Download


Tags: Central, Dynamic, Fusion, Zytecki


Jam Track Central: 20 Dynamic Rock Fusion Licks with Jakub Zytecki (2015) Fast Download via Rapidshare Hotfile Fileserve Filesonic Megaupload, Jam Track Central: 20 Dynamic Rock Fusion Licks with Jakub Zytecki (2015) Torrents and Emule Download or anything related.
Dear visitor, you went to website as unregistered user.
We encourage you to Register or Login to website under your name.

Add comments

Name:*
E-Mail:*
Comments:
Enter Code: *