Information of news
 (Votes #: 0)

Paul Gilbert - Vibrato Instuctional DVD (2015)

Category: Tutorial

Download Now

Paul Gilbert - Vibrato Instuctional DVD (2015)

Paul Gilbert - Vibrato Instuctional DVD (2015)
DVDRip | English | MP4 | 720 x 404 | AVC ~1492 Kbps | 29.970 fps
AAC | 128 Kbps | 48.0 KHz | 2 channels | ~2 hours | Subs: Japanese | 2.8 GB
Genre: eLearning Video / Guitar lesson (2015)

"Paul gilbert's guitar instructional dvd for his new album "vibrato" ! Paul himself explains how to play all songs in vibrato. It is an import so has japanese subtitles."

General
Complete name : PG_VIBRATO_INSTRUCTIONAL_DVD.7.Atmosphere_on_the_Moon.mp4
Format
: MPEG-4
Format profile : Base Media / Version 2
Codec ID
: mp42
File size
: 152 MiB
Duration
: 12mn 58s
Overall bit rate mode : Variable
Overall bit rate : 1 636 Kbps
Movie name
: PG_VIBRATO_INSTRUCTIONAL_DVD.Title8
Album
: PG_VIBRATO_INSTRUCTIONAL_DVD
Encoded date : UTC 2015-07-30 03:39:42
Tagged date
: UTC 2015-07-30 03:48:39
Writing application

: DVDFab 9.1.9.5
covr
: Unknown kind of value!

Video
ID : 1
Format
: AVC
Format/Info
: Advanced Video Codec
Format profile : [email protected]
Format settings, CABAC : Yes
Format settings, ReFrames : 1 frame
Codec ID
: avc1
Codec ID/Info : Advanced Video Coding
Duration
: 12mn 57s
Bit rate mode : Variable
Bit rate
: 1 492 Kbps
Width
: 720 pixels
Height
: 404 pixels
Display aspect ratio : 16:9
Frame rate mode : Constant
Frame rate
: 29.970 fps
Color space
: YUV
Chroma subsampling

: 4:2:0
Bit depth
: 8 bits
Scan type
: Progressive
Bits/(Pixel*Frame)

: 0.171
Stream size
: 138 MiB (91%)
Writing library : x264 core 142
Encoding settings: cabac=1 / ref=1 / deblock=1:0:0 / analyse=0x1:0x111 / me=umh / subme=6 / psy=0 / mixed_ref=0 / me_range=12 / chroma_me=1 / trellis=0 / 8x8dct=0 / cqm=0 / deadzone=21,11 / fast_pskip=1 / chroma_qp_offset=0 / threads=4 / lookahead_threads=1 / sliced_threads=0 / nr=0 / decimate=1 / interlaced=0 / bluray_compat=0 / constrained_intra=0 / bframes=0 / weightp=0 / keyint=24 / keyint_min=13 / scenecut=40 / intra_refresh=0 / rc=abr / mbtree=0 / bitrate=1492 / ratetol=1.0 / qcomp=0.60 / qpmin=0 / qpmax=69 / qpstep=4 / ip_ratio=1.40 / aq=1:1.00
Encoded date : UTC 2015-07-30 03:39:42
Tagged date
: UTC 2015-07-30 03:48:39
Color primaries : BT.601-6 525, BT.1358 525, BT.1700 NTSC, SMPTE 170M
Transfer characteristics : BT.709-5, BT.1361
Matrix coefficients

: BT.601-6 525, BT.1358 525, BT.1700 NTSC, SMPTE 170M

Audio
ID : 2
Format
: AAC
Format/Info
: Advanced Audio Codec
Format profile : LC
Codec ID
: 40
Duration
: 12mn 58s
Bit rate mode : Variable
Bit rate
: 128 Kbps
Maximum bit rate : 131 Kbps
Channel(s)
: 2 channels
Channel positions: Front: L R
Sampling rate : 48.0 KHz
Compression mode : Lossy
Stream size
: 11.9 MiB (8%)
Encoded date : UTC 2015-07-30 03:39:42
Tagged date
: UTC 2015-07-30 03:48:39

Text
ID : 3
Format
: Apple text
Codec ID
: text
Duration
: 12mn 57s
Bit rate mode : Constant
Bit rate
: 1 bps
Stream size
: 92.0 Bytes (0%)
Encoded date : UTC 2015-07-30 03:39:42
Tagged date
: UTC 2015-07-30 03:48:39

Screenshots

Paul Gilbert - Vibrato Instuctional DVD (2015)

Paul Gilbert - Vibrato Instuctional DVD (2015)

Paul Gilbert - Vibrato Instuctional DVD (2015)


DOWNLOAD LINKS:
Buy Premium To Support Me & Get Resumable Support & Max Speed


Links are Interchangeable - No Password - Single Extraction
Direct Download


Tags: Gilbert, Vibrato, Instuctional


Paul Gilbert - Vibrato Instuctional DVD (2015) Fast Download via Rapidshare Hotfile Fileserve Filesonic Megaupload, Paul Gilbert - Vibrato Instuctional DVD (2015) Torrents and Emule Download or anything related.
Dear visitor, you went to website as unregistered user.
We encourage you to Register or Login to website under your name.

Add comments

Name:*
E-Mail:*
Comments:
Enter Code: *