Information of news
 (Votes #: 0)

Lick Library: Learn to Play Michael Schenker Group and UFO, 2 DVD-set (2015)

Category: Tutorial

Download Now

Lick Library: Learn to Play Michael Schenker Group and UFO, 2 DVD-set (2015)

Lick Library: Learn to Play Michael Schenker Group and UFO, 2 DVD-set (2015)
2xDVDRip | English | MP4 + MP3 jam tracks | 768 x 576 | AVC ~1500 Kbps | 25 fps
AAC | 128 Kbps | 48.0 KHz | 2 channels | 03:29:40 | 2.58 GB
Genre: eLearning Video / Guitar lesson (2015)

"Learn five UFO tracks note for note with Dave Kilminster This superb DVD will teach you some of the hard edged rock riffs and solos that made Michael Schenker a guitar hero and UFO one of the most influential rock bands of the 70s! Tracks include;"

Doctor Doctor Lights Out Only You Can Rock Me Rock Bottom Natural Thing Dave Kilminster transcribes, writes and records for 'Guitar Techniques' magazine, as well as the occasional guest columns in Guitarist, and is currently playing and singing with Roger Waters

General
Complete name : 7_Only_You_Can_Rock_Me_Intro_Verse_Chorus_&_Melody.mp4
Format
: MPEG-4
Format profile : Base Media
Codec ID
: isom
File size
: 170 MiB
Duration
: 14mn 33s
Overall bit rate mode : Variable
Overall bit rate : 1 630 Kbps
Encoded date : UTC 2014-10-25 02:42:12
Tagged date
: UTC 2014-10-25 02:42:12

Video
ID : 1
Format
: AVC
Format/Info
: Advanced Video Codec
Format profile : [email protected]
Format settings, CABAC : No
Format settings, ReFrames : 1 frame
Codec ID
: avc1
Codec ID/Info : Advanced Video Coding
Duration
: 14mn 33s
Bit rate
: 1 500 Kbps
Maximum bit rate : 2 279 Kbps
Width
: 768 pixels
Height
: 576 pixels
Display aspect ratio : 4:3
Frame rate mode : Constant
Frame rate
: 25.000 fps
Color space
: YUV
Chroma subsampling

: 4:2:0
Bit depth
: 8 bits
Scan type
: Progressive
Bits/(Pixel*Frame)

: 0.136
Stream size
: 156 MiB (92%)
Writing library : x264 core 142 r2479kMod dd79a61
Encoding settings: cabac=0 / ref=1 / deblock=0:0:0 / analyse=0:0 / me=dia / subme=0 / psy=1 / fade_compensate=0.00 / psy_rd=1.00:0.00 / mixed_ref=0 / me_range=16 / chroma_me=1 / trellis=0 / 8x8dct=0 / cqm=0 / deadzone=21,11 / fast_pskip=1 / chroma_qp_offset=0 / threads=12 / lookahead_threads=2 / sliced_threads=0 / nr=0 / decimate=1 / interlaced=0 / bluray_compat=0 / constrained_intra=0 / fgo=0 / bframes=0 / weightp=0 / keyint=250 / keyint_min=25 / scenecut=0 / intra_refresh=0 / rc=2pass / mbtree=0 / bitrate=1500 / ratetol=1.0 / qcomp=0.60 / qpmin=0 / qpmax=69 / qpstep=4 / cplxblur=20.0 / qblur=0.5 / ip_ratio=1.40 / aq=0
Encoded date : UTC 2014-10-25 02:42:12
Tagged date
: UTC 2014-10-25 02:42:13

Audio
ID : 2
Format
: AAC
Format/Info
: Advanced Audio Codec
Format profile : LC
Codec ID
: 40
Duration
: 14mn 33s
Bit rate mode : Variable
Bit rate
: 128 Kbps
Maximum bit rate : 155 Kbps
Channel(s)
: 2 channels
Channel positions: Front: L R
Sampling rate : 48.0 KHz
Compression mode : Lossy
Stream size
: 13.3 MiB (8%)
Encoded date : UTC 2014-10-25 02:41:18
Tagged date
: UTC 2014-10-25 02:42:13

Screenshots

Lick Library: Learn to Play Michael Schenker Group and UFO, 2 DVD-set (2015)

Lick Library: Learn to Play Michael Schenker Group and UFO, 2 DVD-set (2015)

Lick Library: Learn to Play Michael Schenker Group and UFO, 2 DVD-set (2015)



DOWNLOAD LINKS:
Buy Premium To Support Me & Get Resumable Support & Max Speed


Links are Interchangeable - No Password - Single Extraction
Direct Download


Tags: Library, Michael, Schenker


Lick Library: Learn to Play Michael Schenker Group and UFO, 2 DVD-set (2015) Fast Download via Rapidshare Hotfile Fileserve Filesonic Megaupload, Lick Library: Learn to Play Michael Schenker Group and UFO, 2 DVD-set (2015) Torrents and Emule Download or anything related.
Dear visitor, you went to website as unregistered user.
We encourage you to Register or Login to website under your name.

Add comments

Name:*
E-Mail:*
Comments:
Enter Code: *