Information of news
  • Views: 0
  • Author: god.sad
  • Date: 22-07-2015, 11:21
 (Votes #: 0)

The Gnomon Workshop: Visual Development with Marc Gabbana - Volume One

Category: Tutorial

Download Now

The Gnomon Workshop: Visual Development with Marc Gabbana - Volume One

The Gnomon Workshop: Visual Development with Marc Gabbana - Volume One
English | FLV | 1280 x 720 | VP6 ~2623 kbps | 24 fps
MPEG Audio | 96 Kbps | 22.05 KHz | 1 channel | ~3 hours | 2.59 GB
Genre: Video Tutorial / Drawing

In this series, Marc Gabbana walks you through his process as he creates the TribalBot, a forest dwelling robotic vehicle. In this first volume, he begins with 2D orthographic and perspective drawings and walks you through his artistic process, as he develops them into more realized and finished images. Working with traditional medium such as pencil, pen and marker, he shows you how he bring his ideas to life. He covers some shading and perspective concepts, steps which are necessary to make the work appear more realistic.
In this series, Marc Gabbana walks you through his process as he creates the TribalBot, a forest dwelling robotic vehicle. In this first volume, he begins with 2D orthographic and perspective drawings and walks you through his artistic process, as he develops them into more realized and finished images. Working with traditional medium such as pencil, pen and marker, he shows you how he bring his ideas to life. He covers some shading and perspective concepts, steps which are necessary to make the work appear more realistic. Marc combines his passions for drawing, perspective and industrial design and stresses exploration of shapes and forms to create never before seen walking vehicles of all sorts. The final image is a fully detailed pen drawing of the TribalBot.
Contents:

How 2D Orthographic Drawings Inform 3D Design
Mastering Perspective by Drawing Cubes
Anchoring Characters in Perspective
Using Key Lighting Concepts to Make Objects Appear Realistic
Exploring Shapes and Forms
Blue-line Pencil Drawing and Pen Sketching
Maintaining the Energy of a Gesture Drawing
Using Drafting Instruments for Precise Inking

Chapters:

1. Design and Perspective Concepts
2. The Tools of the Trade
3. Robot Designs - Pen and Marker Ideations
4. Single Robot - Blue Pencil, Pen and Marker Drawing
5. The Three Ameegoes - Blue Pencil, Pen and Marker Drawing
6. Crab Leg Bots
7. TribalBot is Born - Blue Pencil, Pen and Marker Drawing
8. 3/4 Views and Side Orthos - Blueline
9. 3/4 Views and Side Orthos - Inking with Instruments
10. Cleaned Up Photoshop File of 3/4 Orthos
11. Rough Pen Underlay
12. Final Blueline
13. Final Inking Part One
14. Final Inking Part Two

Author: Marc Gabbana

General
Complete name : mga01_ch05.flv
Format : Flash Video
File size : 275 MiB
Duration : 17mn 50s
Overall bit rate : 2 152 Kbps
Encoded date : 2010-07-07 17:43:24
Tagged date : UTC 2010-07-07 20:04:05
Tagging application : Manitu Group FLV MetaData Injector 2
canseektoend : No

Video
Format : VP6
Codec ID : 4
Duration : 13mn 56s
Bit rate : 2 623 Kbps
Width : 1 280 pixels
Height : 720 pixels
Display aspect ratio : 16:9
Frame rate mode : Constant
Frame rate : 24.000 fps
Bit depth : 8 bits
Bits/(Pixel*Frame) : 0.119
Stream size : 262 MiB (95%)

Audio
Format : MPEG Audio
Format version : Version 2
Format profile : Layer 3
Codec ID : 2
Codec ID/Hint : MP3
Duration : 17mn 50s
Bit rate mode : Constant
Bit rate : 96.0 Kbps
Channel(s) : 1 channel
Sampling rate : 22.05 KHz
Compression mode : Lossy
Stream size : 12.9 MiB (5%)
Writing library : LAME3.97 (beta)

Screenshots

The Gnomon Workshop: Visual Development with Marc Gabbana - Volume One

The Gnomon Workshop: Visual Development with Marc Gabbana - Volume One


Download link:

Buy Premium To Support Me & Download with MaX SPeeD!

The Gnomon Workshop: Visual Development with Marc Gabbana - Volume One
nq44q.The.Gnomon.Workshop.Visual.Development.with.Marc.Gabbana..Volume.One.part1.rar.html
nq44q.The.Gnomon.Workshop.Visual.Development.with.Marc.Gabbana..Volume.One.part2.rar.html
nq44q.The.Gnomon.Workshop.Visual.Development.with.Marc.Gabbana..Volume.One.part3.rar.html
nq44q.The.Gnomon.Workshop.Visual.Development.with.Marc.Gabbana..Volume.One.part4.rar.html
nq44q.The.Gnomon.Workshop.Visual.Development.with.Marc.Gabbana..Volume.One.part5.rar.html
nq44q.The.Gnomon.Workshop.Visual.Development.with.Marc.Gabbana..Volume.One.part6.rar.html

Uploaded.net
nq44q.The.Gnomon.Workshop.Visual.Development.with.Marc.Gabbana..Volume.One.part1.rar
nq44q.The.Gnomon.Workshop.Visual.Development.with.Marc.Gabbana..Volume.One.part2.rar
nq44q.The.Gnomon.Workshop.Visual.Development.with.Marc.Gabbana..Volume.One.part3.rar
nq44q.The.Gnomon.Workshop.Visual.Development.with.Marc.Gabbana..Volume.One.part4.rar
nq44q.The.Gnomon.Workshop.Visual.Development.with.Marc.Gabbana..Volume.One.part5.rar
nq44q.The.Gnomon.Workshop.Visual.Development.with.Marc.Gabbana..Volume.One.part6.rar

The Gnomon Workshop: Visual Development with Marc Gabbana - Volume One
nq44q.The.Gnomon.Workshop.Visual.Development.with.Marc.Gabbana..Volume.One.part1.rar
nq44q.The.Gnomon.Workshop.Visual.Development.with.Marc.Gabbana..Volume.One.part2.rar
nq44q.The.Gnomon.Workshop.Visual.Development.with.Marc.Gabbana..Volume.One.part3.rar
nq44q.The.Gnomon.Workshop.Visual.Development.with.Marc.Gabbana..Volume.One.part4.rar
nq44q.The.Gnomon.Workshop.Visual.Development.with.Marc.Gabbana..Volume.One.part5.rar
nq44q.The.Gnomon.Workshop.Visual.Development.with.Marc.Gabbana..Volume.One.part6.rar

uploadable_ch:
nq44q.The.Gnomon.Workshop.Visual.Development.with.Marc.Gabbana..Volume.One.part1.rar
nq44q.The.Gnomon.Workshop.Visual.Development.with.Marc.Gabbana..Volume.One.part2.rar
nq44q.The.Gnomon.Workshop.Visual.Development.with.Marc.Gabbana..Volume.One.part3.rar
nq44q.The.Gnomon.Workshop.Visual.Development.with.Marc.Gabbana..Volume.One.part4.rar
nq44q.The.Gnomon.Workshop.Visual.Development.with.Marc.Gabbana..Volume.One.part5.rar
nq44q.The.Gnomon.Workshop.Visual.Development.with.Marc.Gabbana..Volume.One.part6.rar
Direct Download


Tags: Gnomon, Workshop, Visual, Development, Gabbana


The Gnomon Workshop: Visual Development with Marc Gabbana - Volume One Fast Download via Rapidshare Hotfile Fileserve Filesonic Megaupload, The Gnomon Workshop: Visual Development with Marc Gabbana - Volume One Torrents and Emule Download or anything related.
Dear visitor, you went to website as unregistered user.
We encourage you to Register or Login to website under your name.

Add comments

Name:*
E-Mail:*
Comments:
Enter Code: *