Information of news
 (Votes #: 0)

Craig Fraser - Radical Helmet Graphix

Category: Tutorial

Download Now

http://i71.fastpic.ru/big/2015/0717/f3/b01bb058bfa1bd402d1b50a1e3209cf3.jpg

Craig Fraser - Radical Helmet Graphix
DVDRip | English | AVI/DivX 29.970 fps 1200 Kbps | 720x480 | MP3 128 Kbps 48.0 khz | 1h 38mn | 942 MB
Genre: Video Training

In this video, Craig demonstrates the latest trick graphics used in Kustom helmet painting today. From masking techniques to stencils to freehand airnrushing, Craig incorporates these all into a seamless design that encompasses the look that today's off-road, streetbike, and racing clients are looking for. Keep your helmet skills on the leading edge with this money making addition to your kustom video arsenal. A must for all kustom painters, beginning or advanced.
General
Complete name : Craig Fraser, Radical Helmet Graphix.avi
Format : AVI
Format/Info : Audio Video Interleave
File size : 942 MiB
Duration : 1h 38mn
Overall bit rate : 1 342 Kbps

Video
ID : 0
Format : MPEG-4 Visual
Format profile : [email protected]
Format settings, BVOP : No
Format settings, QPel : No
Format settings, GMC : No warppoints
Format settings, Matrix : Default (H.263)
Codec ID : DIVX
Codec ID/Info : Project Mayo
Codec ID/Hint : DivX 4
Duration : 1h 38mn
Source duration : 1h 38mn
Bit rate : 1 200 Kbps
Width : 720 pixels
Height : 480 pixels
Display aspect ratio : 2.000
Frame rate : 29.970 fps
Standard : NTSC
Color space : YUV
Chroma subsampling : 4:2:0
Bit depth : 8 bits
Scan type : Progressive
Compression mode : Lossy
Bits/(Pixel*Frame) : 0.116
Stream size : 842 MiB (89%)
Writing library : avc2.0.11.1110

Audio
ID : 1
Format : MPEG Audio
Format version : Version 1
Format profile : Layer 3
Mode : Joint stereo
Mode extension : MS Stereo
Codec ID : 55
Codec ID/Hint : MP3
Duration : 1h 38mn
Source duration : 1h 38mn
Bit rate mode : Constant
Bit rate : 128 Kbps
Channel(s) : 2 channels
Sampling rate : 48.0 KHz
Compression mode : Lossy
Stream size : 89.8 MiB (10%)
Alignment : Aligned on interleaves
Interleave, duration : 24 ms (0.72 video frame)

Screenshots

http://i69.fastpic.ru/big/2015/0717/a9/64ff4cea855477380316042d1375ffa9.jpg

http://i71.fastpic.ru/big/2015/0717/a6/9ffd358452e1c8de731178cdd2fba3a6.jpg

http://i72.fastpic.ru/big/2015/0717/bb/606d88e70e6a3bdfb82b8b5db8f660bb.jpg


Download link:
Links are Interchangeable - Single Extraction - Premium is support resumable
Direct Download


Tags: Fraser, Radical, Helmet, Graphix


Craig Fraser - Radical Helmet Graphix Fast Download via Rapidshare Hotfile Fileserve Filesonic Megaupload, Craig Fraser - Radical Helmet Graphix Torrents and Emule Download or anything related.
Dear visitor, you went to website as unregistered user.
We encourage you to Register or Login to website under your name.

Add comments

Name:*
E-Mail:*
Comments:
Enter Code: *