Information of news
  • Views: 0
  • Author: god.sad
  • Date: 17-07-2015, 11:08
 (Votes #: 0)

Lynda: Shooting on the Road, from Gear to Workflow with Ben Long

Category: Tutorial

Download Now

Lynda: Shooting on the Road, from Gear to Workflow with Ben Long

Lynda: Shooting on the Road, from Gear to Workflow with Ben Long
English | MOV | 960 x 540 | AVC ~1744 kbps | 29.970 fps
AAC | 103 Kbps | 48.0 KHz | 2 channels | 03:09:01 | 2.45 GB
Genre: Video Tutorial / Video and Photography

Shooting on the road, whether it's on vacation or on assignment, introduces a variety of considerations for photographers of all levels. How do you store the shots, back them up, edit and enhance images in the field, and then merge those images with your master library at home? In this course, Ben Long addresses these topics and more from the perspective of several field-shooting scenarios, including city vacationing and backcountry hiking.
The course takes a look at the hardware and software issues behind field shooting: assessing storage and backup needs, evaluating GPS geotagging options, surveying power and charging issues, and more. After discussing each of the components, Ben shows how they fit together in different field setups, ranging from an extravagant laptop-based system to a no-computer setup that backs up photos to a compact digital wallet device. The course also spotlights some workflow strategies to consider when you get home, from transferring photos to merging them with a larger photo library.
General
Complete name : 90823_04_01_LA11_Pt2_SettlingIn.mov
Format : QuickTime
Format/Info : Original Apple specifications
File size : 42.3 MiB
Duration : 3mn 12s
Overall bit rate mode : Variable
Overall bit rate : 1 844 Kbps
Encoded date : UTC 2012-06-28 18:00:19
Tagged date : UTC 2012-06-28 18:00:19
Writing library : Apple QuickTime
Copyright : lynda.com

Video
ID : 1
Format : AVC
Format/Info : Advanced Video Codec
Format profile : [email protected]
Format settings, CABAC : Yes
Format settings, ReFrames : 3 frames
Codec ID : avc1
Codec ID/Info : Advanced Video Coding
Duration : 3mn 12s
Bit rate : 1 744 Kbps
Width : 960 pixels
Height : 540 pixels
Display aspect ratio : 16:9
Frame rate mode : Constant
Frame rate : 29.970 fps
Color space : YUV
Chroma subsampling : 4:2:0
Bit depth : 8 bits
Scan type : Progressive
Bits/(Pixel*Frame) : 0.112
Stream size : 40.0 MiB (95%)
Language : English
Encoded date : UTC 2012-06-28 18:00:19
Tagged date : UTC 2012-06-28 18:00:19
Color primaries : BT.709-2, SMPTE 274M, SMPTE 296M
Transfer characteristics : BT.709-2, SMPTE 170M, SMPTE 274M, SMPTE 293M, SMPTE 296M
Matrix coefficients : BT.470-4 System B, BT.470-4 System G, BT.601-4, SMPTE 170M, SMPTE 293M

Audio
ID : 2
Format : AAC
Format/Info : Advanced Audio Codec
Format profile : LC
Codec ID : 40
Duration : 3mn 12s
Bit rate mode : Variable
Bit rate : 96.0 Kbps
Maximum bit rate : 103 Kbps
Channel(s) : 2 channels
Channel positions : Front: L R
Sampling rate : 48.0 KHz
Compression mode : Lossy
Stream size : 2.20 MiB (5%)
Language : English
Encoded date : UTC 2012-06-28 18:00:19
Tagged date : UTC 2012-06-28 18:00:19

Screenshots

Lynda: Shooting on the Road, from Gear to Workflow with Ben Long

Lynda: Shooting on the Road, from Gear to Workflow with Ben Long



Download link:

Buy Premium To Support Me & Download with MaX SPeeD!

Lynda: Shooting on the Road, from Gear to Workflow with Ben Long
5p3lw.Lynda.Shooting.on.the.Road.from.Gear.to.Workflow.with.Ben.Long.part1.rar.html
5p3lw.Lynda.Shooting.on.the.Road.from.Gear.to.Workflow.with.Ben.Long.part2.rar.html
5p3lw.Lynda.Shooting.on.the.Road.from.Gear.to.Workflow.with.Ben.Long.part3.rar.html
5p3lw.Lynda.Shooting.on.the.Road.from.Gear.to.Workflow.with.Ben.Long.part4.rar.html
5p3lw.Lynda.Shooting.on.the.Road.from.Gear.to.Workflow.with.Ben.Long.part5.rar.html
5p3lw.Lynda.Shooting.on.the.Road.from.Gear.to.Workflow.with.Ben.Long.part6.rar.html

Uploaded.net
5p3lw.Lynda.Shooting.on.the.Road.from.Gear.to.Workflow.with.Ben.Long.part1.rar
5p3lw.Lynda.Shooting.on.the.Road.from.Gear.to.Workflow.with.Ben.Long.part2.rar
5p3lw.Lynda.Shooting.on.the.Road.from.Gear.to.Workflow.with.Ben.Long.part3.rar
5p3lw.Lynda.Shooting.on.the.Road.from.Gear.to.Workflow.with.Ben.Long.part4.rar
5p3lw.Lynda.Shooting.on.the.Road.from.Gear.to.Workflow.with.Ben.Long.part5.rar
5p3lw.Lynda.Shooting.on.the.Road.from.Gear.to.Workflow.with.Ben.Long.part6.rar

Lynda: Shooting on the Road, from Gear to Workflow with Ben Long
5p3lw.Lynda.Shooting.on.the.Road.from.Gear.to.Workflow.with.Ben.Long.part1.rar
5p3lw.Lynda.Shooting.on.the.Road.from.Gear.to.Workflow.with.Ben.Long.part2.rar
5p3lw.Lynda.Shooting.on.the.Road.from.Gear.to.Workflow.with.Ben.Long.part3.rar
5p3lw.Lynda.Shooting.on.the.Road.from.Gear.to.Workflow.with.Ben.Long.part4.rar
5p3lw.Lynda.Shooting.on.the.Road.from.Gear.to.Workflow.with.Ben.Long.part5.rar
5p3lw.Lynda.Shooting.on.the.Road.from.Gear.to.Workflow.with.Ben.Long.part6.rar

uploadable_ch:
5p3lw.Lynda.Shooting.on.the.Road.from.Gear.to.Workflow.with.Ben.Long.part1.rar
5p3lw.Lynda.Shooting.on.the.Road.from.Gear.to.Workflow.with.Ben.Long.part2.rar
5p3lw.Lynda.Shooting.on.the.Road.from.Gear.to.Workflow.with.Ben.Long.part3.rar
5p3lw.Lynda.Shooting.on.the.Road.from.Gear.to.Workflow.with.Ben.Long.part4.rar
5p3lw.Lynda.Shooting.on.the.Road.from.Gear.to.Workflow.with.Ben.Long.part5.rar
5p3lw.Lynda.Shooting.on.the.Road.from.Gear.to.Workflow.with.Ben.Long.part6.rar
Direct Download


Tags: Shooting, Workflow


Lynda: Shooting on the Road, from Gear to Workflow with Ben Long Fast Download via Rapidshare Hotfile Fileserve Filesonic Megaupload, Lynda: Shooting on the Road, from Gear to Workflow with Ben Long Torrents and Emule Download or anything related.
Dear visitor, you went to website as unregistered user.
We encourage you to Register or Login to website under your name.

Add comments

Name:*
E-Mail:*
Comments:
Enter Code: *