Information of news
 (Votes #: 0)

Street Basic Tumbling (2015)

Category: Tutorial

Download Now

Street Basic Tumbling (2015)

Street Basic Tumbling (2015)
DVDRip | English | MP4 | 1920 x 1080 | AVC ~3013 kbps | 23.976 fps
AAC | 256 Kbps | 48.0 KHz | 2 channels | 00:28:39 | 758.6 MB
Genre: eLearning Video / Acrobatics, Gymnastics

"This tutorial series is aimed to introducing you to the most basic movements, that will lead into back tuck and front tuck, and all the prerequisites required for the back handspring. Not only do these moves help with the back and front, but will also transfer over into many other more advanced skills! Some of you have access to epic locations, like sand dunes which is a great place to learn flips. Don't be afraid of nature, be natural! Playgrounds, trees, lakes, grass help you to overcome the fear. Take some blankets or a mattress to enjoy the tumbling!"

General
Complete name : Back Roll Handstand Balance roll-HD.mp4
Format
: MPEG-4
Format profile : Base Media / Version 2
Codec ID
: mp42
File size
: 13.8 MiB
Duration
: 35s 413ms
Overall bit rate mode : Variable
Overall bit rate : 3 274 Kbps
Encoded date : UTC 2015-05-13 19:52:42
Tagged date
: UTC 2015-05-13 19:52:42

Video
ID : 1
Format
: AVC
Format/Info
: Advanced Video Codec
Format profile : [email protected]
Format settings, CABAC : Yes
Format settings, ReFrames : 4 frames
Codec ID
: avc1
Codec ID/Info : Advanced Video Coding
Duration
: 35s 410ms
Bit rate
: 3 013 Kbps
Width
: 1 920 pixels
Height
: 1 080 pixels
Display aspect ratio : 16:9
Frame rate mode : Constant
Frame rate
: 23.976 fps
Color space
: YUV
Chroma subsampling

: 4:2:0
Bit depth
: 8 bits
Scan type
: Progressive
Bits/(Pixel*Frame)

: 0.061
Stream size
: 12.7 MiB (92%)
Writing library : x264 core 146 r16 121396c
Encoding settings: cabac=1 / ref=3 / deblock=1:0:0 / analyse=0x3:0x113 / me=hex / subme=7 / psy=1 / psy_rd=1.00:0.00 / mixed_ref=1 / me_range=16 / chroma_me=1 / trellis=1 / 8x8dct=1 / cqm=0 / deadzone=21,11 / fast_pskip=1 / chroma_qp_offset=-2 / threads=48 / lookahead_threads=8 / sliced_threads=0 / nr=0 / decimate=1 / interlaced=0 / bluray_compat=0 / stitchable=1 / constrained_intra=0 / bframes=3 / b_pyramid=2 / b_adapt=1 / b_bias=0 / direct=1 / weightb=1 / open_gop=0 / weightp=2 / keyint=infinite / keyint_min=23 / scenecut=40 / intra_refresh=0 / rc_lookahead=40 / rc=crf / mbtree=1 / crf=20.0 / qcomp=0.60 / qpmin=5 / qpmax=69 / qpstep=4 / vbv_maxrate=4950 / vbv_bufsize=13500 / crf_max=0.0 / nal_hrd=none / filler=0 / ip_ratio=1.40 / aq=1:1.00
Encoded date : UTC 2015-05-13 19:52:42
Tagged date
: UTC 2015-05-13 19:52:42
Color primaries : BT.709-5, BT.1361, IEC 61966-2-4, SMPTE RP177
Transfer characteristics : BT.709-5, BT.1361
Matrix coefficients

: BT.709-5, BT.1361, IEC 61966-2-4 709, SMPTE RP177

Audio
ID : 2
Format
: AAC
Format/Info
: Advanced Audio Codec
Format profile : LC
Codec ID
: 40
Duration
: 35s 413ms
Bit rate mode : Variable
Bit rate
: 256 Kbps
Channel(s)
: 2 channels
Channel positions: Front: L R
Sampling rate : 48.0 KHz
Compression mode : Lossy
Stream size
: 1.08 MiB (8%)
Encoded date : UTC 2015-05-13 19:52:42
Tagged date
: UTC 2015-05-13 19:52:42

Screenshots

Street Basic Tumbling (2015)

Street Basic Tumbling (2015)

Street Basic Tumbling (2015)

Street Basic Tumbling (2015)

Street Basic Tumbling (2015)



DOWNLOAD LINKS:
Buy Premium To Support Me & Get Resumable Support & Max Speed


Links are Interchangeable - No Password - Single Extraction
Direct Download


Tags: Street, Tumbling


Street Basic Tumbling (2015) Fast Download via Rapidshare Hotfile Fileserve Filesonic Megaupload, Street Basic Tumbling (2015) Torrents and Emule Download or anything related.
Dear visitor, you went to website as unregistered user.
We encourage you to Register or Login to website under your name.

Add comments

Name:*
E-Mail:*
Comments:
Enter Code: *