Information of news
  • Views: 0
  • Author: god.sad
  • Date: 11-06-2015, 14:56
 (Votes #: 0)

Malamed's Local Anesthesia Administration

Category: Tutorial

Download Now

Malamed's Local Anesthesia Administration

Malamed's Local Anesthesia Administration
DVDRip | English | AVI/AVC 29.970 fps 749 Kbps | 555x528 | MP3 64.0 Kbps 48.0 khz | 1h 1mn | 1.26 GB
Genre: Video Training

This groundbreaking approach to dental local anesthesia instruction brings key anesthesia concepts to life. Using high-quality video and animation, this DVD set provides viewers with a unique virtual clinical experience where they'll see the latest anesthetic agents, injection techniques, potential complications, and risk management strategies in action.
This groundbreaking approach to dental local anesthesia instruction brings key anesthesia concepts to life. Using high-quality video and animation, this DVD set provides viewers with a unique virtual clinical experience where they'll see the latest anesthetic agents, injection techniques, potential complications, and risk management strategies in action. Plus, it includes authoritative commentary throughout from noted dental anesthesia expert, Stanley Malamed, DDS, and offers users the opportunity to earn CEU credit.

00 - Introduction (Введение)
01 - Drugs - Neurophysiology (Нейрофизиология)
02 - Drugs - Pharmacology Of Local Anesthetics (Фармакология Местных Анестезирующих средств)
03 - Drugs - Pharmacology Of Vasocontrictors (Фармакология вазоконстрикторов)
04 - Drugs - Clinical Actions Of Specific Agents (Клиническое Действие)
05 - The Armamentarium (Оснащение врачебного кабинета)
06 - Techniques - Physical And Psychological Evaluation (Физическая И Психологическая Оценка)
07 - Techniques - Basic Injection Technique (Основная Техника Инъекции)
08 - Techniques - Anatomical Considerations (Анатомия)
09 - Techniques - Maxillary Injections Techniques (Верхнечелюстные Методы Инъекций)
10 - Techniques - Mandibular Injections Techniques (Нижнечелюстные Методы Инъекций)
11 - Techniques - Supplemental Injection Techniques (Дополнительные Методы Инъекции)
12 - Techniques - Local Anesthetic Considerations (Оценка Анестезирующего средства)
13 - Complications - Local (Осложнения - Местные)
14 - Complications - Systemic (Осложнения - Системные)
15 - Credits

General
Complete name : Malamed's Local Anesthesia (DVDRip)\00 - Introduction.avi
Format : AVI
Format/Info : Audio Video Interleave
File size : 14.5 MiB
Duration : 2mn 27s
Overall bit rate : 828 Kbps
Movie name : LADVD 1.Title17.DVDRip
Writing application : Lavf52.17.0
Original source form/Name : LADVD 1

Video
ID : 0
Format : AVC
Format/Info : Advanced Video Codec
Format profile : [email protected]
Format settings, CABAC : No
Format settings, ReFrames : 1 frame
Codec ID : H264
Duration : 2mn 27s
Bit rate : 749 Kbps
Nominal bit rate : 555 Kbps
Width : 528 pixels
Height : 400 pixels
Display aspect ratio : 4:3
Frame rate : 29.970 fps
Color space : YUV
Chroma subsampling : 4:2:0
Bit depth : 8 bits
Scan type : Progressive
Bits/(Pixel*Frame) : 0.118
Stream size : 13.2 MiB (91%)
Writing library : x264 core 60
Encoding settings : cabac=0 / ref=1 / deblock=0:0:0 / analyse=0x1:0 / me=dia / subme=7 / brdo=0 / mixed_ref=0 / me_range=4 / chroma_me=1 / trellis=0 / 8x8dct=0 / cqm=0 / deadzone=21,11 / chroma_qp_offset=0 / threads=2 / nr=0 / decimate=1 / mbaff=0 / bframes=0 / keyint=250 / keyint_min=25 / scenecut=0(pre) / rc=abr / bitrate=555 / ratetol=14.8 / rceq='tex^qComp' / qcomp=0.50 / qpmin=10 / qpmax=31 / qpstep=3 / ip_ratio=1.25 / aq=0

Audio
ID : 1
Format : MPEG Audio
Format version : Version 1
Format profile : Layer 3
Mode : Joint stereo
Mode extension : MS Stereo
Codec ID : 55
Codec ID/Hint : MP3
Duration : 2mn 27s
Bit rate mode : Constant
Bit rate : 64.0 Kbps
Channel(s) : 2 channels
Sampling rate : 48.0 KHz
Compression mode : Lossy
Stream size : 1.12 MiB (8%)
Alignment : Aligned on interleaves
Interleave, duration : 24 ms (0.72 video frame)

Screenshots

Malamed's Local Anesthesia Administration

Malamed's Local Anesthesia Administration


Download link:

Buy Premium To Support Me & Download with MaX SPeeD!

Direct Download


Tags: Malamed, Anesthesia, Administration


Malamed's Local Anesthesia Administration Fast Download via Rapidshare Hotfile Fileserve Filesonic Megaupload, Malamed's Local Anesthesia Administration Torrents and Emule Download or anything related.
Dear visitor, you went to website as unregistered user.
We encourage you to Register or Login to website under your name.

Add comments

Name:*
E-Mail:*
Comments:
Enter Code: *