Information of news
 (Votes #: 0)

Kelby Training: Wedding Photography - Rapid-Fire Tips and Tricks [repost]

Category: Tutorial

Download Now

http://i71.fastpic.ru/big/2015/0521/71/908f8fbfee201e7694a6234aaf515871.jpg

Kelby Training: Wedding Photography - Rapid-Fire Tips and Tricks
WEBRip | English | FLV | 852 x 480 | AVC ~872 kbps | 23.976 fps
MP3 | 128 Kbps | 44.1 KHz | 2 channels | 01:09:34 | 638.8 MB
Genre: Video Tutorial / Video and Photography, Wedding

David Ziser is back with a brand new, rapid-fire learning session comprised of the many wedding photography tips and tricks he's discovered in his 25-year career. In the end, you'll come away with an arsenal of solid techniques that you can put to work right away for better photos and higher profits.
Topics include:
01 Shooting in Natural Surroundings 3:12
02 Avoiding the Dappled Lighting 1:43
03 Building the Photograph 3:43
04 Longer Focal Length 2:32
05 Head and Shoulders Shot 7:38
06 Pampas Grass Background 6:21
07 Bright, Direct Sunlight 2:58
08 Checking for Blinkies 4:06
09 Brick Background 9:40
10 Working with Available Light 4:04
11 Leading Lines 4:29
12 Finding a Location 4:18
13 Classic Profile Views 3:41
14 Directional Light 2:43
15 Posing for the Final Shots 8:24

General
Complete name : 01 Shooting in Natural Surroundings.flv
Format : Flash Video
File size : 36.9 MiB
Duration : 3mn 12s
Overall bit rate : 1 610 Kbps
Encoded date : Wed Nov 18 18:33:26 2009
Writing application : Erik Kuna / Sorenson Squeeze / Sorenson Squeeze

Video
Format : VP6
Codec ID : 4
Duration : 3mn 12s
Bit rate : 872 Kbps
Width : 852 pixels
Height : 480 pixels
Display aspect ratio : 16:9
Frame rate mode : Constant
Frame rate : 23.976 fps
Bit depth : 8 bits
Bits/(Pixel*Frame) : 0.089
Stream size : 20.0 MiB (54%)

Audio
Format : MPEG Audio
Format version : Version 1
Format profile : Layer 3
Mode : Joint stereo
Mode extension : MS Stereo
Codec ID : 2
Codec ID/Hint : MP3
Duration : 3mn 12s
Bit rate mode : Constant
Bit rate : 128 Kbps
Channel(s) : 2 channels
Sampling rate : 44.1 KHz
Compression mode : Lossy
Stream size : 2.93 MiB (8%)

Screenshots

http://i69.fastpic.ru/big/2015/0521/cd/cea016ecca187f5351f74c9b029b7dcd.jpg

http://i70.fastpic.ru/big/2015/0521/52/a4f890b126360669723a35db15957552.jpg

http://i71.fastpic.ru/big/2015/0521/a8/44759f711ba1b0c04b0a4d01b96bc7a8.jpg

http://i71.fastpic.ru/big/2015/0521/d2/1d2907e6009c66eaa620aebf96304ed2.jpg


Download link:
Links are Interchangeable - No Password - Single Extraction
Direct Download


Tags: Training, Wedding, Photography, Tricks, repost


Kelby Training: Wedding Photography - Rapid-Fire Tips and Tricks [repost] Fast Download via Rapidshare Hotfile Fileserve Filesonic Megaupload, Kelby Training: Wedding Photography - Rapid-Fire Tips and Tricks [repost] Torrents and Emule Download or anything related.
Dear visitor, you went to website as unregistered user.
We encourage you to Register or Login to website under your name.

Add comments

Name:*
E-Mail:*
Comments:
Enter Code: *