Information of news
 (Votes #: 0)

Galileo Design: Adobe Photoshop - The Next Level

Category: Tutorial

Download Now

Galileo Design: Adobe Photoshop - The Next Level

Galileo Design: Adobe Photoshop - The Next Level
Kreative Bildideen und faszinierende Spezialeffekte

(.mp4) in an interactive shell | German | 1280 x 720 | AVC ~697 Kbps | 25 fps
AAC | 158 kbps | 44.1 KHz | 2 channels | 7h 29m | 3.78 GB
Genre: Video Tutorial / Adobe Photoshop

"Sie suchen Inspiration für neue, begeisternde Photoshop-Projekte? Dirk Metzmacher, Autor des Photoshop-Weblogs, zeigt Ihnen, wie Sie die nächste Stufe in der Bildretusche mit Photoshop erreichen. Schauen Sie dem Profi über die Schulter und entfesseln Sie Photoshop. Staunen Sie, welche Plug-ins den Workflow spürbar optimieren. Mit diesem Training holen Sie alles aus Ihren Bildern heraus - egal ob in der Porträtretusche, Texteffekte oder Composing."

Content:
1. Tuning-Tipps für Experten [00:40 Std.]
1.1 ... Einleitung [00:31 Min.]
1.2 ... Von 0 auf 100 - Photoshop beschleunigen [06:34 Min.]
1.3 ... Die Oberfläche aufräumen [08:37 Min.]
1.4 ... Shortcuts für Individualisten [05:14 Min.]
1.5 ... Smarte Bildbearbeitung [06:31 Min.]
1.6 ... Den Farben ein Profil geben [04:13 Min.]
1.7 ... Das Ebenen-Bedienfeld für Tastenvirtuosen [08:27 Min.]
2. Der Werkzeugkasten für Kreative [01:04 Std.]
2.1 ... Einleitung [00:25 Min.]
2.2 ... Ebenenkompositionen [07:49 Min.]
2.3 ... Werkzeuge neu entdecken [14:22 Min.]
2.4 ... Pinsel-Power für Photoshopper [08:30 Min.]
2.5 ... Photoshop auf Autopilot [09:12 Min.]
2.6 ... Aktionen effektiv anwenden [06:05 Min.]
2.7 ... Willkommen in der dritten Dimension [10:33 Min.]
2.8 ... Trickreiche Tonwertkorrekturen [07:29 Min.]
3. Porträtretusche bis in die Poren [00:36 Std.]
3.1 ... Einleitung [00:28 Min.]
3.2 ... Porträtretusche für Traditionalisten [06:41 Min.]
3.3 ... Die digitale Puderdose [06:49 Min.]
3.4 ... Hautretusche auf zwei Ebenen [07:26 Min.]
3.5 ... Hautfarben optimieren [08:22 Min.]
3.6 ... Smarte Glamour-Retusche [05:56 Min.]
4. Bildkorrekturen um die Ecke gedacht [00:35 Std.]
4.1 ... Einleitung [00:24 Min.]
4.2 ... Farbstichen zu Leibe rücken [06:48 Min.]
4.3 ... Der 70er-Jahre-Look [06:06 Min.]
4.4 ... Verschärfte Porträts [09:35 Min.]
4.5 ... Rauschreduzierung und Colour-Key-Effekte [05:18 Min.]
4.6 ... Mikrokontraste verstärken [06:32 Min.]
5. Text und Schrift veredeln [00:57 Std.]
5.1 ... Einleitung [00:25 Min.]
5.2 ... Gläserne Texte auf Hochglanz polieren [10:26 Min.]
5.3 ... Glühende Buchstaben erzeugen [05:57 Min.]
5.4 ... Texte aus Holzbrettern zimmern [13:49 Min.]
5.5 ... Zerschmetterte Texte erstellen [10:21 Min.]
5.6 ... Öko-Texte für die grüne Generation [15:44 Min.]
6. Kompositionen aus Licht und Schatten [01:43 Std.]
6.1 ... Einleitung [00:25 Min.]
6.2 ... Mit Licht und Schatten malen [09:35 Min.]
6.3 ... Lichtstimmungen neutralisieren [05:05 Min.]
6.4 ... HDR-Schärfe simulieren [09:08 Min.]
6.5 ... Lebhafte Buchgeschichten [14:52 Min.]
6.6 ... Kreative Bilderrahmen erstellen [16:35 Min.]
6.7 ... Ein galaktischer Sternenhimmel [10:01 Min.]
6.8 ... Blutige Tentakel [15:03 Min.]
6.9 ... Gruseliges Geisterhaus [21:59 Min.]
7. Neue Welten schmieden [01:18 Std.]
7.1 ... Einleitung [00:24 Min.]
7.2 ... Einen Wolkenkratzer zerstören [08:25 Min.]
7.3 ... Meteoriten einschlagen lassen [14:01 Min.]
7.4 ... Die Welt aus Eis [16:37 Min.]
7.5 ... Ein neues Planetensystem erschaffen [13:08 Min.]
7.6 ... Verfolgungsjagd im Kunstgemälde [13:50 Min.]
7.7 ... Wasserfluten und Ballonfahrten aus einem Gemälde [11:41 Min.]
8. Erweiterungen für Kreativköpfe [00:36 Std.]
8.1 ... Einleitung [00:29 Min.]
8.2 ... Praktische Panels einbinden [09:20 Min.]
8.3 ... Chaos generieren mit »Alchemy« [05:11 Min.]
8.4 ... Schattenspiele für Experten mit »Lokas 3D Shadow« [08:55 Min.]
8.5 ... Fotos optimieren mit »virtualPhotographer« [05:33 Min.]
8.6 ... Kreative Webkonferenzen mit »ConnectNow« [06:42 Min.]

Menu:

Galileo Design: Adobe Photoshop - The Next Level


author: Dirk Metzmacher
project files are included


General
Complete name : 476_Lektion_02.05.mp4
Format
: MPEG-4
Codec ID
: M4V
File size
: 56.5 MiB
Duration
: 9mn 12s
Overall bit rate mode : Variable
Overall bit rate : 858 Kbps
Encoded date : UTC 2011-03-01 10:26:09
Tagged date
: UTC 2011-03-01 10:26:09
©TIM
: 00:00:00:00
©TSC
: 25
©TSZ
: 1

Video
ID : 1
Format
: AVC
Format/Info
: Advanced Video Codec
Format profile : [email protected]
Format settings, CABAC : No
Format settings, ReFrames : 2 frames
Format settings, GOP : M=1, N=50
Codec ID
: avc1
Codec ID/Info : Advanced Video Coding
Duration
: 9mn 12s
Bit rate mode : Variable
Bit rate
: 697 Kbps
Width
: 1 280 pixels
Height
: 720 pixels
Display aspect ratio : 16:9
Frame rate mode : Constant
Frame rate
: 25.000 fps
Standard
: NTSC
Color space
: YUV
Chroma subsampling

: 4:2:0
Bit depth
: 8 bits
Scan type
: Progressive
Bits/(Pixel*Frame)

: 0.030
Stream size
: 45.9 MiB (81%)
Language
: English
Encoded date : UTC 2011-03-01 10:26:09
Tagged date
: UTC 2011-03-01 10:26:09

Audio
ID : 2
Format
: AAC
Format/Info
: Advanced Audio Codec
Format profile : LC
Codec ID
: 40
Duration
: 9mn 12s
Source duration : 9mn 12s
Bit rate mode : Variable
Bit rate
: 158 Kbps
Maximum bit rate : 243 Kbps
Channel(s)
: 2 channels
Channel positions: Front: L R
Sampling rate : 44.1 KHz
Compression mode : Lossy
Stream size
: 10.4 MiB (18%)
Source stream size

: 10.4 MiB
Language
: English
Encoded date : UTC 2011-03-01 10:26:09
Tagged date
: UTC 2011-03-01 10:26:09

Screenshots

Galileo Design: Adobe Photoshop - The Next Level

Galileo Design: Adobe Photoshop - The Next Level

Galileo Design: Adobe Photoshop - The Next Level



DOWNLOAD LINKS:
Buy Premium To Support Me & Get Resumable Support & Max Speed


Links are Interchangeable - No Password - Single Extraction
Direct Download


Tags: Galileo, Design, Photoshop


Galileo Design: Adobe Photoshop - The Next Level Fast Download via Rapidshare Hotfile Fileserve Filesonic Megaupload, Galileo Design: Adobe Photoshop - The Next Level Torrents and Emule Download or anything related.
Dear visitor, you went to website as unregistered user.
We encourage you to Register or Login to website under your name.

Add comments

Name:*
E-Mail:*
Comments:
Enter Code: *