Information of news
 (Votes #: 0)

The Nature of Things -The Great Butterfly Hunt (December 4, 2014) [1 UN (AVI)]

Category: Tutorial

Download Now

The Nature of Things -The Great Butterfly Hunt (December 4, 2014) [1 UN (AVI)]

The Nature of Things -The Great Butterfly Hunt (December 4, 2014) [1 UN (AVI)]
English | Size: 830.90 MB
Category: Natural Sciences

The Great Butterfly Hunt tells the story of incredible journeys. The first is that of the remarkable Monarch migration, which is the longest insect migration on Earth. The second story is that of Fred Urquhart, the determined Canadian scientist who spent 40 years trying to discover exactly where the butterflies mysteriously disappeared when they flew south for the winter.
The Great Butterfly Hunt is a beautiful and colourful one-hour program that combines the spectacular visuals from Flight of the Butterflies with the production's behind-the-scenes look at how such films get made. As many Canadians will be groaning about the long grey winter ahead, The Great Butterfly Hunt will remind audiences of the promise of spring. And, at a time when the monarch population is in rapid decline, viewers will have an opportunity to watch one of Nature's most dramatic feats unfold.

Complete name : The Nature of Things -The Great Butterfly Hunt.avi
Format : AVI
Format/Info : Audio Video Interleave
File size : 831 MiB
Duration : 44mn 43s
Overall bit rate mode : Variable
Overall bit rate : 2 598 Kbps
Writing application : Lavf53.6.0

ID : 0
Format : MPEG-4 Visual
Format profile : Advanced [email protected]
Format settings, BVOP : 2
Format settings, QPel : No
Format settings, GMC : No warppoints
Format settings, Matrix : Default (H.263)
Codec ID : FMP4
Duration : 44mn 43s
Bit rate : 2 375 Kbps
Width : 960 pixels
Height : 540 pixels
Display aspect ratio : 16:9
frame rate : 25.000 fps
Color space : YUV
Chroma subsampling : 4:2:0
Bit depth : 8 bits
Scan type : Progressive
Compression mode : Lossy
Bits/(Pixel*frame) : 0.183
Stream size : 760 MiB (91%)
Writing library : XviD 63

ID : 1
Format : MPEG Audio
Format version : Version 1
Format profile : Layer 3
Mode : Joint stereo
Codec ID : 55
Codec ID/Hint : MP3
Duration : 44mn 42s
Bit rate mode : Variable
Bit rate : 148 Kbps
Channel(s) : 2 channels
Sampling rate : 44.1 KHz
Compression mode : Lossy
Stream size : 67.3 MiB (8%)
Alignment : Aligned on interleaves
Interleave, duration : 26 ms (0.65 video frame)
Buy Premium To Support Me & Get Resumable Support & Max Speed

Links are Interchangeable - No Password - Single Extraction
Direct Download

Tags: Nature, Things, Butterfly

The Nature of Things -The Great Butterfly Hunt (December 4, 2014) [1 UN (AVI)] Fast Download via Rapidshare Hotfile Fileserve Filesonic Megaupload, The Nature of Things -The Great Butterfly Hunt (December 4, 2014) [1 UN (AVI)] Torrents and Emule Download or anything related.
Dear visitor, you went to website as unregistered user.
We encourage you to Register or Login to website under your name.

Add comments

Enter Code: *