Information of news
 (Votes #: 0)

Ctrl+Paint - Basic Photoshop Rendering Vol. 1-4 (2014)

Category: Tutorial

Download Now

Ctrl+Paint - Basic Photoshop Rendering Vol. 1-4 (2014)

Ctrl+Paint - Basic Photoshop Rendering Vol. 1-4 (2014)
MP4 | AVC 993kbps | English | 1280x720 | 29.97fps | 4h 10mins | AAC stereo 318kbps | 1.59 GB
Genre: Video Training

If you're just starting out with digital painting, this is the series I would recommend. Do you ever feel like you painting is too 'flat'? To create an illusion of 3D space on a flat canvas you must first understand form, light, and shadow. This 4 part series introduces the process of basic grayscale rendering in Photoshop. Beginning with the pencil drawing, the videos guide you through the process of painting a basic object lit with a spotlight. Though the vase painted in this series is simple, the principles are fundamental and can be applied to more complex subject-matter.
Vol1
Intro
Keyboard Commands
Canvas Prep
Shadow Shape
Illuminated Area
Reflected Light
Occlusion Shadows
Mistakes
Polish
Prepare to Refine
Refining the Vase
Finishing the Background
Post Processing

Vol2
Light 101
Casting Shadows
Light Angle
Types of Light
Quick Sketch Demo
Complex Object Demo

Vol3
Studying Value
Checklist Overview
Light and Atmosphere
Local Value and Texture
Reflectivity
Next Steps

Vol4
Designing a Value Pattern
Thumbnail Sketch & Digital Rough
Linework and Paths
Block-in
Base Render
Texture Overlay
Re-Posing the Character
Final Balancing

Ctrl+Paint - Basic Photoshop Rendering Vol. 1-4 (2014)
Format : MPEG-4
Format profile : Base Media / Version 2
Codec ID : mp42
File size : 118 MiB
Duration : 12mn 34s
Overall bit rate mode : Variable
Overall bit rate : 1 315 Kbps
Encoded date : UTC 2014-10-23 01:06:06
Tagged date : UTC 2014-10-23 01:06:08
©TIM : 00:00:00:00
©TSC : 30000
©TSZ : 1001
Video #1
ID : 1
Format : AVC
Format/Info : Advanced Video Codec
Format profile : [email protected]
Format settings, CABAC : Yes
Format settings, ReFrames : 3 frames
Codec ID : avc1
Codec ID/Info : Advanced Video Coding
Duration : 12mn 34s
Bit rate mode : Variable
Bit rate : 993 Kbps
Maximum bit rate : 3 000 Kbps
Width : 1 280 pixels
Height : 720 pixels
Display aspect ratio : 16:9
Frame rate mode : Constant
Frame rate : 29.970 fps
Standard : NTSC
Color space : YUV
Chroma subsampling : 4:2:0
Bit depth : 8 bits
Scan type : Progressive
Bits/(Pixel*Frame) : 0.036
Stream size : 89.3 MiB (76%)
Language : English
Encoded date : UTC 2014-10-23 01:06:06
Tagged date : UTC 2014-10-23 01:06:06
Color primaries : BT.709
Transfer characteristics : BT.709
Matrix coefficients : BT.709
Audio #2
ID : 2
Format : AAC
Format/Info : Advanced Audio Codec
Format profile : LC
Codec ID : 40
Duration : 12mn 34s
Source duration : 12mn 34s
Bit rate mode : Variable
Bit rate : 318 Kbps
Maximum bit rate : 351 Kbps
Channel(s) : 2 channels
Channel positions : Front: L R
Sampling rate : 44.1 KHz
Compression mode : Lossy
Stream size : 28.6 MiB (24%)
Source stream size : 28.6 MiB (24%)
Language : English
Encoded date : UTC 2014-10-23 01:06:06
Tagged date : UTC 2014-10-23 01:06:06

Ctrl+Paint - Basic Photoshop Rendering Vol. 1-4 (2014)

Ctrl+Paint - Basic Photoshop Rendering Vol. 1-4 (2014)

Ctrl+Paint - Basic Photoshop Rendering Vol. 1-4 (2014)

Ctrl+Paint - Basic Photoshop Rendering Vol. 1-4 (2014)

DOWNLOAD LINKS:
Buy Premium To Support Me & Get Resumable Support & Max Speed

Uploaded.net:
3q7wc.CtrlPaint..Basic.Photoshop.Rendering.Vol..14.2014.part1.rar
3q7wc.CtrlPaint..Basic.Photoshop.Rendering.Vol..14.2014.part2.rar
3q7wc.CtrlPaint..Basic.Photoshop.Rendering.Vol..14.2014.part3.rar
3q7wc.CtrlPaint..Basic.Photoshop.Rendering.Vol..14.2014.part4.rar
3q7wc.CtrlPaint..Basic.Photoshop.Rendering.Vol..14.2014.part5.rar
3q7wc.CtrlPaint..Basic.Photoshop.Rendering.Vol..14.2014.part6.rar

Rapidgator.net:
3q7wc.CtrlPaint..Basic.Photoshop.Rendering.Vol..14.2014.part1.rar.html
3q7wc.CtrlPaint..Basic.Photoshop.Rendering.Vol..14.2014.part2.rar.html
3q7wc.CtrlPaint..Basic.Photoshop.Rendering.Vol..14.2014.part3.rar.html
3q7wc.CtrlPaint..Basic.Photoshop.Rendering.Vol..14.2014.part4.rar.html
3q7wc.CtrlPaint..Basic.Photoshop.Rendering.Vol..14.2014.part5.rar.html
3q7wc.CtrlPaint..Basic.Photoshop.Rendering.Vol..14.2014.part6.rar.html

Uploadable.ch:
3q7wc.CtrlPaint..Basic.Photoshop.Rendering.Vol..14.2014.part1.rar
3q7wc.CtrlPaint..Basic.Photoshop.Rendering.Vol..14.2014.part2.rar
3q7wc.CtrlPaint..Basic.Photoshop.Rendering.Vol..14.2014.part3.rar
3q7wc.CtrlPaint..Basic.Photoshop.Rendering.Vol..14.2014.part4.rar
3q7wc.CtrlPaint..Basic.Photoshop.Rendering.Vol..14.2014.part5.rar
3q7wc.CtrlPaint..Basic.Photoshop.Rendering.Vol..14.2014.part6.rar

Turbobit.net:
3q7wc.CtrlPaint..Basic.Photoshop.Rendering.Vol..14.2014.part1.rar.html
3q7wc.CtrlPaint..Basic.Photoshop.Rendering.Vol..14.2014.part2.rar.html
3q7wc.CtrlPaint..Basic.Photoshop.Rendering.Vol..14.2014.part3.rar.html
3q7wc.CtrlPaint..Basic.Photoshop.Rendering.Vol..14.2014.part4.rar.html
3q7wc.CtrlPaint..Basic.Photoshop.Rendering.Vol..14.2014.part5.rar.html
3q7wc.CtrlPaint..Basic.Photoshop.Rendering.Vol..14.2014.part6.rar.html

2Drive.net:
3q7wc.CtrlPaint..Basic.Photoshop.Rendering.Vol..14.2014.part1.rar
3q7wc.CtrlPaint..Basic.Photoshop.Rendering.Vol..14.2014.part2.rar
3q7wc.CtrlPaint..Basic.Photoshop.Rendering.Vol..14.2014.part3.rar
3q7wc.CtrlPaint..Basic.Photoshop.Rendering.Vol..14.2014.part4.rar
3q7wc.CtrlPaint..Basic.Photoshop.Rendering.Vol..14.2014.part5.rar
3q7wc.CtrlPaint..Basic.Photoshop.Rendering.Vol..14.2014.part6.rar

Links are Interchangeable - No Password - Single Extraction
Direct Download


Tags: Photoshop, Rendering


Ctrl+Paint - Basic Photoshop Rendering Vol. 1-4 (2014) Fast Download via Rapidshare Hotfile Fileserve Filesonic Megaupload, Ctrl+Paint - Basic Photoshop Rendering Vol. 1-4 (2014) Torrents and Emule Download or anything related.
Dear visitor, you went to website as unregistered user.
We encourage you to Register or Login to website under your name.

Add comments

Name:*
E-Mail:*
Comments:
Enter Code: *