Information of news
  • Views: 0
  • Author: Oliver
  • Date: 16-07-2014, 10:34
 (Votes #: 0)

Becker CPA Review Videos 2014

Category: Tutorial

Download Now


Becker CPA Review Videos 2014
Becker CPA Review Videos 2014
Size: 30.972 GB Type: Videos Course





Becker CPA Exam Review 2014 - FAR, AUD, BEC, REG

Videos
+ Notes
+ Homework
+ Simulations
+ Final Review Notes, HW, Simulations
+ Wiley 2014 Review Books

The simulations are a bit of a let down, only screenshots of the questions, not the actual software.

Video quality:

Format/Info : Audio Video Interleave
File size : 52.2 MiB
Duration : 11mn 59s
Overall bit rate : 608 Kbps

Video
ID : 0
Format : MPEG-4 Visual
Format profile : Advanced [email protected]
Format settings, BVOP : 2
Format settings, QPel : No
Format settings, GMC : No warppoints
Format settings, Matrix : Default (H.263)
Muxing mode : Packed bitstream
Codec ID : XVID
Codec ID/Hint : XviD
Duration : 11mn 59s
Bit rate : 477 Kbps
Width : 1 272 pixels
Height : 896 pixels
Display aspect ratio : 1.420
Frame rate : 12.000 fps
Original frame rate : 25.000 fps
Color space : YUV
Chroma subsampling : 4:2:0
Bit depth : 8 bits
Scan type : Progressive
Compression mode : Lossy
Bits/(Pixel*Frame) : 0.035
Stream size : 40.9 MiB (78%)
Writing library : XviD 64

Audio
ID : 1
Format : MPEG Audio
Format version : Version 1
Format profile : Layer 3
Codec ID : 55
Codec ID/Hint : MP3
Duration : 11mn 59s
Bit rate mode : Constant
Bit rate : 128 Kbps
Channel(s) : 1 channel
Sampling rate : 48.0 KHz
Compression mode : Lossy
Stream size : 11.0 MiB (21%)
Alignment : Aligned on interleaves
Interleave, duration : 83 ms (1.00 video frame)
Interleave, preload duration : 96 ms
Writing library : LAME3.93

I recommends Buy premimum account for High speed+parallel downloads!


.ch
Download From Rapidgator
http://rapidgator.net/file/4bb8970e80d2d131747a278d782287f3/CPA.part01.rar.html
http://rapidgator.net/file/3f6d04679bffe518cb63188da3976935/CPA.part02.rar.html
http://rapidgator.net/file/50b234269452d66c0248cbf6a0434b0f/CPA.part03.rar.html
http://rapidgator.net/file/1b4e43a91c0204f2bda3a756051f1704/CPA.part04.rar.html
http://rapidgator.net/file/5918a40eb5ecb659faad72d9b7cf3fd7/CPA.part05.rar.html
http://rapidgator.net/file/2f8b037fcc7dd7e0d8ec8e583d340827/CPA.part06.rar.html
http://rapidgator.net/file/4881ce52157e3eb50d0fb89fdb3eb817/CPA.part07.rar.html
http://rapidgator.net/file/b25e39f6487caf697bcbdc8dcbd08f81/CPA.part08.rar.html
http://rapidgator.net/file/a809f3156b8409a68d059da8bbd30470/CPA.part09.rar.html
http://rapidgator.net/file/10d3b5b4689c416468ec6090ce64843b/CPA.part10.rar.html
http://rapidgator.net/file/74727e24c84f86d9c2e3c14943bd66ab/CPA.part11.rar.html
http://rapidgator.net/file/df9f54bd914b35eaed93ab111892e49c/CPA.part12.rar.html
http://rapidgator.net/file/ec87cc421b10998f498d56ecc0d2123d/CPA.part13.rar.html
http://rapidgator.net/file/fcc66e3f839b539fcddfb40d50895b8c/CPA.part14.rar.html
http://rapidgator.net/file/ed2c5d87fd2819648b897276a4273fe5/CPA.part15.rar.html
http://rapidgator.net/file/127f5fb4426e6c30c4d58d837bfd652d/CPA.part16.rar.html
Download From uploaded
http://uploaded.net/file/lnr1v90i/CPA.part01.rar
http://uploaded.net/file/qvg2muwc/CPA.part02.rar
http://uploaded.net/file/f2a8354n/CPA.part03.rar
http://uploaded.net/file/wpljy4t1/CPA.part04.rar
http://uploaded.net/file/tz3pp46m/CPA.part05.rar
http://uploaded.net/file/dxgd3fab/CPA.part06.rar
http://uploaded.net/file/y0ov6rtv/CPA.part07.rar
http://uploaded.net/file/nmdi28i2/CPA.part08.rar
http://uploaded.net/file/1bi4cnzz/CPA.part09.rar
http://uploaded.net/file/gxq4z414/CPA.part10.rar
http://uploaded.net/file/6q76ynbe/CPA.part11.rar
http://uploaded.net/file/rwv1qka2/CPA.part12.rar
http://uploaded.net/file/jevzkiif/CPA.part13.rar
http://uploaded.net/file/rkodtwl5/CPA.part14.rar
http://uploaded.net/file/6nwq763p/CPA.part15.rar
http://uploaded.net/file/orcxp385/CPA.part16.rar
Direct Download


Tags: Becker, Review, Videos


Becker CPA Review Videos 2014 Fast Download via Rapidshare Hotfile Fileserve Filesonic Megaupload, Becker CPA Review Videos 2014 Torrents and Emule Download or anything related.
Dear visitor, you went to website as unregistered user.
We encourage you to Register or Login to website under your name.

Add comments

Name:*
E-Mail:*
Comments:
Enter Code: *