Information of news
  • Views: 0
  • Author: Wasabi
  • Date: 12-12-2013, 17:01
 (Votes #: 0)

Wide Open - The Fish & The Fly 3 - Terrestrial (2010)

Category: Tutorial

Download Now

Wide Open - The Fish & The Fly 3 - Terrestrial (2010)

Wide Open - The Fish & The Fly 3 - Terrestrial (2010)
English | MKV (H264) 25.000 fps 2500 Kbps | 720x400 | AC3 192 Kbps 48.0 khz | 1h 43mn | 1.96 GB
Genre: Video Training, Fishing

"This is dry fly fishing at its best. Terrestrials are land based insects - grasshoppers, beetles, Daddy Long Legs etc. Imitations of these insects are natural additions to any flybox and Morten Oeland shows why. We join Morten Oeland as he uses his fantastic imitations on a number of fishingtrips in Denmark, Greenland, Germany, New Zealand and Swedish Lapland."

We follow him as he chooses his fly, tactic and fishing technique in every situation. The film is packed with fact and information about fishing the terrestrial.
Morten is a skilled and experienced flytier. The second movie on the DVD is about the tying of the imitations he uses. He shows step by step how he ties his original, simple and highly innovative flies.
This is an instructive movie, which is also full of great moments and exciting fishing situations. Morten catches lots of beautiful fish in amazing surrouding. A film of the same high standards as the previous movies in this series."

Complete name : Teh Fish & The Fly-3 Terrestrials.mkv
Format : Matroska
Format version : Version 2
File size : 1.96 GiB
Duration : 1h 43mn
Overall bit rate : 2 693 Kbps
Encoded date : UTC 2013-12-10 18:56:47
Writing application : mkvmerge v6.6.0 ('The Edge Of The In Between') built on Dec 1 2013 17:55:00
Writing library : libebml v1.3.0 + libmatroska v1.4.1

Video
ID : 1
Format : AVC
Format/Info : Advanced Video Codec
Format profile : [email protected]
Format settings, CABAC : Yes
Format settings, ReFrames : 4 frames
Codec ID : V_MPEG4/ISO/AVC
Duration : 1h 43mn
Bit rate : 2 500 Kbps
Width : 720 pixels
Height : 400 pixels
Display aspect ratio : 16:9
Frame rate : 25.000 fps
Color space : YUV
Chroma subsampling : 4:2:0
Bit depth : 8 bits
Scan type : Progressive
Bits/(Pixel*Frame) : 0.347
Stream size : 1.78 GiB (91%)
Writing library : x264 core 138 r2358 9e941d1
Encoding settings : cabac=1 / ref=3 / deblock=1:0:0 / analyse=0x3:0x113 / me=hex / subme=7 / psy=1 / psy_rd=1.00:0.00 / mixed_ref=1 / me_range=16 / chroma_me=1 / trellis=1 / 8x8dct=1 / cqm=0 / deadzone=21,11 / fast_pskip=1 / chroma_qp_offset=-2 / threads=3 / lookahead_threads=1 / sliced_threads=0 / nr=0 / decimate=1 / interlaced=0 / bluray_compat=0 / constrained_intra=0 / bframes=3 / b_pyramid=2 / b_adapt=1 / b_bias=0 / direct=1 / weightb=1 / open_gop=0 / weightp=2 / keyint=250 / keyint_min=25 / scenecut=40 / intra_refresh=0 / rc_lookahead=40 / rc=2pass / mbtree=1 / bitrate=2500 / ratetol=2.0 / qcomp=0.60 / qpmin=0 / qpmax=69 / qpstep=4 / cplxblur=20.0 / qblur=0.5 / ip_ratio=1.40 / aq=1:1.00
Default : Yes
Forced : No

Audio
ID : 2
Format : AC-3
Format/Info : Audio Coding 3
Mode extension : CM (complete main)
Format settings, Endianness : Big
Codec ID : A_AC3
Duration : 1h 43mn
Bit rate mode : Constant
Bit rate : 192 Kbps
Channel(s) : 2 channels
Channel positions : Front: L R
Sampling rate : 48.0 KHz
Bit depth : 16 bits
Compression mode : Lossy
Stream size : 143 MiB (7%)
Default : Yes
Forced : No



Uploaded:
fbl9r.Wide.Open..The.Fish..The.Fly.3..Terrestrial.2010.part1.rar
fbl9r.Wide.Open..The.Fish..The.Fly.3..Terrestrial.2010.part2.rar
fbl9r.Wide.Open..The.Fish..The.Fly.3..Terrestrial.2010.part3.rar
fbl9r.Wide.Open..The.Fish..The.Fly.3..Terrestrial.2010.part4.rar
fbl9r.Wide.Open..The.Fish..The.Fly.3..Terrestrial.2010.part5.rar

RyuShare:
fbl9r.Wide.Open..The.Fish..The.Fly.3..Terrestrial.2010.part1.rar
fbl9r.Wide.Open..The.Fish..The.Fly.3..Terrestrial.2010.part2.rar
fbl9r.Wide.Open..The.Fish..The.Fly.3..Terrestrial.2010.part3.rar
fbl9r.Wide.Open..The.Fish..The.Fly.3..Terrestrial.2010.part4.rar
fbl9r.Wide.Open..The.Fish..The.Fly.3..Terrestrial.2010.part5.rar

RapidGator:
fbl9r.Wide.Open..The.Fish..The.Fly.3..Terrestrial.2010.part1.rar.html
fbl9r.Wide.Open..The.Fish..The.Fly.3..Terrestrial.2010.part2.rar.html
fbl9r.Wide.Open..The.Fish..The.Fly.3..Terrestrial.2010.part3.rar.html
fbl9r.Wide.Open..The.Fish..The.Fly.3..Terrestrial.2010.part4.rar.html
fbl9r.Wide.Open..The.Fish..The.Fly.3..Terrestrial.2010.part5.rar.html

SecureUpload:
fbl9r.Wide.Open..The.Fish..The.Fly.3..Terrestrial.2010.part1.rar
fbl9r.Wide.Open..The.Fish..The.Fly.3..Terrestrial.2010.part2.rar
fbl9r.Wide.Open..The.Fish..The.Fly.3..Terrestrial.2010.part3.rar
fbl9r.Wide.Open..The.Fish..The.Fly.3..Terrestrial.2010.part4.rar
fbl9r.Wide.Open..The.Fish..The.Fly.3..Terrestrial.2010.part5.rar
Direct Download


Tags: Terrestrial


Wide Open - The Fish & The Fly 3 - Terrestrial (2010) Fast Download via Rapidshare Hotfile Fileserve Filesonic Megaupload, Wide Open - The Fish & The Fly 3 - Terrestrial (2010) Torrents and Emule Download or anything related.
Dear visitor, you went to website as unregistered user.
We encourage you to Register or Login to website under your name.

Add comments

Name:*
E-Mail:*
Comments:
Enter Code: *