Information of news
  • Views: 107
  • Author: Wasabi
  • Date: 6-11-2013, 19:45
 (Votes #: 0)

Math Tutor - Algebra Help: The Algebra 2 (Repost)

Category: Tutorial

Download Now

Math Tutor - Algebra Help: The Algebra 2 (Repost)

Math Tutor - Algebra Help: The Algebra 2 (Repost)
DVDRip | English | AVI/XVID 29.970 fps 747 Kbps | 640x480 | MP3 103 Kbps 48.0 khz | 6 Hour | 1.98 GB
Genre: Video Training

"The Algebra 2 Tutor is a 6 hour course spread over 2 DVD disks that will aid the student in the core topics of Algebra 2. This DVD bridges the gap between Algebra 1 and Trigonometry, and contains essential material to do well in advanced mathematics. Many of the topics in contained in this DVD series are used in other Math courses, such as writing equations of lines, graphing equations, and solving systems of equations."

"The Algebra 2 Tutor is a 6 hour course spread over 2 DVD disks that will aid the student in the core topics of Algebra 2. This DVD bridges the gap between Algebra 1 and Trigonometry, and contains essential material to do well in advanced mathematics. Many of the topics in contained in this DVD series are used in other Math courses, such as writing equations of lines, graphing equations, and solving systems of equations. These skills are used time again in more advanced courses such as Physics and Calculus. Each topic is introduced by working example problems, beginning with the easier problems and gradually working the harder ones. In this way the student immediately gains confidence in his or her abilities and improves homework and exam taking skills.

Disk 1
Section 1: Graphing Equations
Section 2: The Slope Of A Line
Section 3: Writing Equations Of Lines
Section 4: Graphing Inequalities
Section 5: Solving Systems Of Equations By Graphing
Section 6: Solving Systems Of Equations By Substitution
Section 7: Solving Systems Of Equations By Addition

Disk 2
Section 8: Solving Systems Of Equations In Three Variables
Section 9: Simplifying Radical Expressions.
Section 10: Add/Subtract Radical Expressions.
Section 11: Multiply/Divide Radical Expressions.
Section 12: Solving Equations With Radicals.
Section 13: Fractional Exponents.
Section 14: Solving Polynomial Equations.
Section 15: The Quadratic Formula."
Math Tutor - Algebra Help: The Algebra 2 (Repost)

MediaInfo:General
Complete name : Math.Tutor.DVD.Algebra.2.Tutor\01.graphing.equations.avi
Format : AVI
Format/Info : Audio Video Interleave
File size : 223 MiB
Duration : 36mn 5s
Overall bit rate mode : Variable
Overall bit rate : 864 Kbps
Writing application : VirtualDubMod 1.5.4.1 (build 2178/release)
Writing library : VirtualDubMod build 2178/release

Video
ID : 0
Format : MPEG-4 Visual
Format profile : Advanced [email protected]
Format settings, BVOP : 1
Format settings, QPel : No
Format settings, GMC : No warppoints
Format settings, Matrix : Custom
Codec ID : XVID
Codec ID/Hint : XviD
Duration : 36mn 5s
Bit rate : 747 Kbps
Width : 640 pixels
Height : 480 pixels
Display aspect ratio : 4:3
Frame rate : 29.970 fps
Color space : YUV
Chroma subsampling : 4:2:0
Bit depth : 8 bits
Scan type : Progressive
Compression mode : Lossy
Bits/(Pixel*Frame) : 0.081
Stream size : 193 MiB (87%)
Writing library : XviD 1.2.0.dev47 (UTC 2006-11-01)

Audio
ID : 1
Format : MPEG Audio
Format version : Version 1
Format profile : Layer 3
Mode : Joint stereo
Mode extension : MS Stereo
Codec ID : 55
Codec ID/Hint : MP3
Duration : 36mn 5s
Bit rate mode : Variable
Bit rate : 103 Kbps
Nominal bit rate : 128 Kbps
Channel(s) : 2 channels
Sampling rate : 48.0 KHz
Compression mode : Lossy
Stream size : 26.5 MiB (12%)
Alignment : Aligned on interleaves
Interleave, duration : 24 ms (0.72 video frame)
Interleave, preload duration : 498 ms
Writing library : LAME3.97
Encoding settings : -m j -V 4 -q 2 -lowpass 17 --abr 128



RyuShare:
9fxe4.Math.Tutor..Algebra.Help.The.Algebra.2.Repost.part1.rar
9fxe4.Math.Tutor..Algebra.Help.The.Algebra.2.Repost.part2.rar
9fxe4.Math.Tutor..Algebra.Help.The.Algebra.2.Repost.part3.rar
9fxe4.Math.Tutor..Algebra.Help.The.Algebra.2.Repost.part4.rar
9fxe4.Math.Tutor..Algebra.Help.The.Algebra.2.Repost.part5.rar

DizzCloud:
9fxe4.Math.Tutor..Algebra.Help.The.Algebra.2.Repost.part1.rar9fxe4.Math.Tutor..Algebra.Help.The.Algebra.2.Repost.part1.rar
9fxe4.Math.Tutor..Algebra.Help.The.Algebra.2.Repost.part2.rar9fxe4.Math.Tutor..Algebra.Help.The.Algebra.2.Repost.part2.rar
9fxe4.Math.Tutor..Algebra.Help.The.Algebra.2.Repost.part3.rar9fxe4.Math.Tutor..Algebra.Help.The.Algebra.2.Repost.part3.rar
9fxe4.Math.Tutor..Algebra.Help.The.Algebra.2.Repost.part4.rar9fxe4.Math.Tutor..Algebra.Help.The.Algebra.2.Repost.part4.rar
9fxe4.Math.Tutor..Algebra.Help.The.Algebra.2.Repost.part5.rar9fxe4.Math.Tutor..Algebra.Help.The.Algebra.2.Repost.part5.rar

RapidGator:
9fxe4.Math.Tutor..Algebra.Help.The.Algebra.2.Repost.part1.rar.html
9fxe4.Math.Tutor..Algebra.Help.The.Algebra.2.Repost.part2.rar.html
9fxe4.Math.Tutor..Algebra.Help.The.Algebra.2.Repost.part3.rar.html
9fxe4.Math.Tutor..Algebra.Help.The.Algebra.2.Repost.part4.rar.html
9fxe4.Math.Tutor..Algebra.Help.The.Algebra.2.Repost.part5.rar.html

Uploaded:
9fxe4.Math.Tutor..Algebra.Help.The.Algebra.2.Repost.part1.rar
9fxe4.Math.Tutor..Algebra.Help.The.Algebra.2.Repost.part2.rar
9fxe4.Math.Tutor..Algebra.Help.The.Algebra.2.Repost.part3.rar
9fxe4.Math.Tutor..Algebra.Help.The.Algebra.2.Repost.part4.rar
9fxe4.Math.Tutor..Algebra.Help.The.Algebra.2.Repost.part5.rar

Direct Download


Tags: Algebra, Algebra, Repost


Math Tutor - Algebra Help: The Algebra 2 (Repost) Fast Download via Rapidshare Hotfile Fileserve Filesonic Megaupload, Math Tutor - Algebra Help: The Algebra 2 (Repost) Torrents and Emule Download or anything related.
Dear visitor, you went to website as unregistered user.
We encourage you to Register or Login to website under your name.

Add comments

Name:*
E-Mail:*
Comments:
Enter Code: *