Information of news
 (Votes #: 0)

Tuts+ - Shoot and Composite a Speed Walking Scene in After Effects (2013)

Category: Tutorial

Download Now

Tuts+ - Shoot and Composite a Speed Walking Scene in After Effects (2013)

Tuts+ - Shoot and Composite a Speed Walking Scene in After Effects (2013)
FLV | AVC 2441kbps | English | 1280x720 | 30fps | 30 mins | AAC stereo 94kbps | 1.06 GB
Genre: Video Training

In this tutorial we are going to walk you through the complete process of a very impressive effect where your actor moves with regular speed while all the environment moves super fast. We'll start with what you need to know while shooting your footage and then move to compositing in After Effects.
Updated: May 16, 2013
Format : Flash Video
File size : 307 MiB
Duration : 20mn 22s
Overall bit rate : 2 105 Kbps
Writing application : Lavf54.63.100
Provided by : ptera
Video
Format : AVC
Format/Info : Advanced Video Codec
Format profile : [email protected]
Format settings, CABAC : Yes
Format settings, ReFrames : 4 frames
Muxing mode : Container [email protected]
Duration : 20mn 22s
Bit rate : 2 441 Kbps
Nominal bit rate : 2 500 Kbps
Width : 1 280 pixels
Height : 720 pixels
Display aspect ratio : 16:9
Frame rate mode : Variable
Frame rate : 30.000 fps
Resolution : 24 bits
Colorimetry : 4:2:0
Scan type : Progressive
Bits/(Pixel*Frame) : 0.088
Stream size : 356 MiB
Writing library : x264 core 129 r2245 bc13772
Encoding settings : cabac=1 / ref=3 / deblock=1:0:0 / analyse=0x3:0x113 / me=hex / subme=7 / psy=1 / psy_rd=1.00:0.00 / mixed_ref=1 / me_range=16 / chroma_me=1 / trellis=1 / 8x8dct=1 / cqm=0 / deadzone=21,11 / fast_pskip=1 / chroma_qp_offset=-2 / threads=12 / lookahead_threads=2 / sliced_threads=0 / nr=0 / decimate=1 / interlaced=0 / bluray_compat=0 / constrained_intra=0 / bframes=3 / b_pyramid=2 / b_adapt=1 / b_bias=0 / direct=1 / weightb=1 / open_gop=0 / weightp=2 / keyint=250 / keyint_min=25 / scenecut=40 / intra_refresh=0 / rc_lookahead=40 / rc=abr / mbtree=1 / bitrate=2500 / ratetol=1.0 / qcomp=0.60 / qpmin=0 / qpmax=69 / qpstep=4 / ip_ratio=1.40 / aq=1:1.00
Audio
Format : AAC
Format/Info : Advanced Audio Codec
Format version : Version 4
Format profile : LC
Format settings, SBR : No
Duration : 20mn 22s
Bit rate : 93.8 Kbps
Channel(s) : 2 channels
Channel positions : L R
Sampling rate : 44.1 KHz
Resolution : 16 bits
Stream size : 13.7 MiB (4%)

Tuts+ - Shoot and Composite a Speed Walking Scene in After Effects (2013)
Tuts+ - Shoot and Composite a Speed Walking Scene in After Effects (2013)
Tuts+ - Shoot and Composite a Speed Walking Scene in After Effects (2013)



RyuShare:
http://ryushare.com/pihly3ruip2x/42x1u.Tuts..Shoot.and.Composite.a.Speed.Walking.Scene.in.After.Effects.2013.part1.rar
http://ryushare.com/pacv03755u67/42x1u.Tuts..Shoot.and.Composite.a.Speed.Walking.Scene.in.After.Effects.2013.part2.rar
http://ryushare.com/k97ux61afbqx/42x1u.Tuts..Shoot.and.Composite.a.Speed.Walking.Scene.in.After.Effects.2013.part3.rar
http://ryushare.com/vwcnezb88td2/42x1u.Tuts..Shoot.and.Composite.a.Speed.Walking.Scene.in.After.Effects.2013.part4.rar
http://ryushare.com/pp35l0g5a0rl/42x1u.Tuts..Shoot.and.Composite.a.Speed.Walking.Scene.in.After.Effects.2013.part5.rar

Uploaded:
http://uploaded.net/file/tg8ft953/42x1u.Tuts..Shoot.and.Composite.a.Speed.Walking.Scene.in.After.Effects.2013.part1.rar
http://uploaded.net/file/mct75hi6/42x1u.Tuts..Shoot.and.Composite.a.Speed.Walking.Scene.in.After.Effects.2013.part2.rar
http://uploaded.net/file/64y91gqb/42x1u.Tuts..Shoot.and.Composite.a.Speed.Walking.Scene.in.After.Effects.2013.part3.rar
http://uploaded.net/file/kgafcbdn/42x1u.Tuts..Shoot.and.Composite.a.Speed.Walking.Scene.in.After.Effects.2013.part4.rar
http://uploaded.net/file/60jbuo4i/42x1u.Tuts..Shoot.and.Composite.a.Speed.Walking.Scene.in.After.Effects.2013.part5.rar

Extabit:
http://extabit.com/file/29g3s6u3d4x7y/42x1u.Tuts..Shoot.and.Composite.a.Speed.Walking.Scene.in.After.Effects.2013.part1.rar
http://extabit.com/file/29g3s6u3d4x9q/42x1u.Tuts..Shoot.and.Composite.a.Speed.Walking.Scene.in.After.Effects.2013.part2.rar
http://extabit.com/file/28clzukoeuw1l/42x1u.Tuts..Shoot.and.Composite.a.Speed.Walking.Scene.in.After.Effects.2013.part3.rar
http://extabit.com/file/29g3s6u3d4xam/42x1u.Tuts..Shoot.and.Composite.a.Speed.Walking.Scene.in.After.Effects.2013.part4.rar
http://extabit.com/file/29g3s6u3d4u6m/42x1u.Tuts..Shoot.and.Composite.a.Speed.Walking.Scene.in.After.Effects.2013.part5.rar

Direct Download


Tags: Composite, Walking, Effects


Tuts+ - Shoot and Composite a Speed Walking Scene in After Effects (2013) Fast Download via Rapidshare Hotfile Fileserve Filesonic Megaupload, Tuts+ - Shoot and Composite a Speed Walking Scene in After Effects (2013) Torrents and Emule Download or anything related.
Dear visitor, you went to website as unregistered user.
We encourage you to Register or Login to website under your name.

Add comments

Name:*
E-Mail:*
Comments:
Enter Code: *